BitTorrentTracker PerecTracker.org
BitTorrentTracker PerecTracker.org
    
Регистрация  ·  Вход
 
 · 
Забыли пароль?

  • Ганнибал / Hannibal (Сезон 3, Серии 1-13 из 13) (Гильермо Наварро, Майкл Раймер, Дэвид Слэйд) [2015, Детектив, криминал, драма , HDTVRip , WEB-DLRip-AVC 1080p] [DD5.1] [MVO] [Sony Sci Fi ,AlexFilm,NewStudio , BaibaKo , Jaskier + Subs Rus,ENG]

    Ответить на тему
     
    Автор Сообщение

    Враг Нароода

    Создавать темы 07-Июн-2015 10:28

           

    [Цитировать]

    ----Ганнибал / Hannibal Сезон 3, Серия 1-13 из 13----Год выпуска:2015
    Выпущено: США, Dino De Laurentiis Productions, Doheny Productions Inc., Gaumont International Television
    Жанр:Криминальная драма,Детектив
    Сезон: 3
    Серии: 1-13
    Количество серий в сезоне: 13
    Продолжительность: 00:43:00
    Озвучка 1: Профессиональный многоголосый -Sony Sci Fi
    Озвучка 2: Профессиональный многоголосый -AlexFilm
    Озвучка 3: Профессиональный многоголосый - NewStudio
    Озвучка 4: Профессиональный многоголосый - BaibaKo
    Озвучка 5: Профессиональный многоголосый - Jaskier
    Субтитры: :Русские, Английские-- --Режиссер: Гильермо Наварро, Майкл Раймер, Дэвид Слэйд--В ролях:Мадс Миккельсен, Хью Дэнси, Каролин Давернас, Лара Жан Чоростецки, Аарон Абрамс, Лоуренс Фишборн, Эттьенн Парк, Скотт Томпсон, Торианна Ли, Демор Барнс-- Грэхэм — одаренный профайлер, который вместе с ФБР разыскивает серийного убийцу. Уникальный способ мышления Грэма дает ему удивительную способность глубоко проникаться чувствами другого человека, даже психопата. Он может понять, что ими движет. Но когда ум преследуемого убийцы оказывается слишком сложным, он прибегает к помощи доктора Лектера, одного из ведущих психиатрических умов в стране.----Качество : HDTVRip , WEB-DLRip-AVC 1080p
    Формат: MKV
    Видео кодек: H264
    Видео: 7423Кбит/сек,1920х1080(16.9),в 23.976кадр/сек,AVC(PAL)(High@L4)(CABAC/3 Ref Frames)
    Аудио Кодек:AC3
    Аудио #1:AC3 , 384 Kbps, 48.0 KHz, 6 ch- -Sony Sci Fi
    Аудио #2: AC3, 384 Kbps, 48.0 KHz, 6 ch - -AlexFilm
    Аудио #3: AC3, 384 Kbps, 48.0 KHz, 6 ch - - NewStudio
    Аудио #4: AC3, 384 Kbps, 48.0 KHz, 6 ch - - BaibaKo
    Аудио #5: AC3, 384 Kbps, 48.0 KHz, 6 ch - - Jaskier
    Аудио #6: AC3, 384 Kbps, 48.0 KHz,6 ch - - English----

    Доп. информация:

    Звуковая дорожка сделана путем наложения чистого голоса озвучивателей на центральный канал оригинальной дорожки. Качество идентично звуковой дорожке.
    --

    Список эпизодов сезона


    01 Антипасто / Antipasto
    02. Весна / Primavera
    03. Второе блюдо / Secondo
    04. Аперитив / Apertivo
    05. Гарнир / Contorno
    06. Сладкий / Dolce
    07. Дижестив / Digestivo
    08. Великий Красный Дракон / Great Red Dragon
    09. ...И жена облачённая солнцем / ...And the Woman Clothed with the Sun
    10. ...И жена облечённая в солнце / .... And the Woman Clothed in Sun
    11 ....И чудовище из моря / ...And the Beast From the Sea
    2. Число Зверя 666 / The Number of the Beast Is 666
    3. : Ярость агнца / The Wrath of the Lamb
    --

    MediaInfo сезона

    Общее
    Уникальный идентификатор : 231628478802303265440013251760816370612 (0xAE4205B7683F3380AF085E6F069BB3B4)
    Полное имя : D:\УЖАСЫ\ГАННИБАЛ\HANNIBAL_2015_S03_RUS_ENG[SciFi_AlexFilm_NewStudio_ BaibaKo_Jaskier]_H264_DD5.1_Nikolai.Baranov_HDTVRip-AVC_1080p\Hannibal_S03E01_RUS_ENG[SciFi_AlexFilm_NewStudio_ BaibaKo_Jaskier]_H264_DD5.1_N.B_HDTVRip-AVC_1080p.mkv
    Формат : Matroska
    Версия формата : Version 4 / Version 2
    Размер файла : 2,98 Гбайт
    Продолжительность : 43 м.
    Режим общего битрейта : Переменный
    Общий поток : 9892 Кбит/сек
    Дата кодирования : UTC 2015-07-13 09:56:17
    Программа кодирования : mkvmerge v8.1.0 ('Psychedelic Postcard') 64bit
    Библиотека кодирования : libebml v1.3.1 + libmatroska v1.4.2
    DURATION : 00:41:36.236000000
    NUMBER_OF_FRAMES : 378
    NUMBER_OF_BYTES : 12229
    _STATISTICS_WRITING_APP : mkvmerge v8.1.0 ('Psychedelic Postcard') 64bit
    _STATISTICS_WRITING_DATE_UTC : 2015-07-13 09:56:17
    _STATISTICS_TAGS : BPS DURATION NUMBER_OF_FRAMES NUMBER_OF_BYTES
    Видео
    Идентификатор : 1
    Формат : AVC
    Формат/Информация : Advanced Video Codec
    Профиль формата : High@L4
    Параметр CABAC формата : Да
    Параметр ReFrames формата : 3 кадра
    Идентификатор кодека : V_MPEG4/ISO/AVC
    Продолжительность : 43 м.
    Вид битрейта : Переменный
    Битрейт : 7391 Кбит/сек
    Максимальный битрейт : 20,0 Мбит/сек
    Ширина : 1920 пикселей
    Высота : 1080 пикселей
    Соотношение сторон : 16:9
    Режим частоты кадров : Постоянный
    Частота кадров : 23,976 кадра/сек
    Стандарт вещания : PAL
    Цветовое пространство : YUV
    Субдискретизация насыщенности : 4:2:0
    Битовая глубина : 8 бит
    Тип развёртки : Прогрессивная
    Бит/(Пиксели*Кадры) : 0.149
    Размер потока : 2,23 Гбайт (75%)
    Язык : English
    Default : Да
    Forced : Нет
    Цветовой диапазон : Limited
    Основные цвета : BT.709
    Характеристики трансфера : BT.709
    Коэффициенты матрицы : BT.709
    Аудио #1
    Идентификатор : 2
    Формат : AC-3
    Формат/Информация : Audio Coding 3
    Расширение режима : CM (complete main)
    Параметр Endianness формата : Big
    Идентификатор кодека : A_AC3
    Продолжительность : 43 м.
    Вид битрейта : Постоянный
    Битрейт : 384 Кбит/сек
    Каналы : 6 каналов
    Расположение каналов : Front: L C R, Side: L R, LFE
    Частота : 48,0 КГц
    Метод сжатия : С потерями
    Размер потока : 118 Мбайт (4%)
    Язык : English
    Default : Да
    Forced : Нет
    Аудио #2
    Идентификатор : 3
    Формат : AC-3
    Формат/Информация : Audio Coding 3
    Расширение режима : CM (complete main)
    Параметр Endianness формата : Big
    Идентификатор кодека : A_AC3
    Продолжительность : 43 м.
    Вид битрейта : Постоянный
    Битрейт : 384 Кбит/сек
    Каналы : 6 каналов
    Расположение каналов : Front: L C R, Side: L R, LFE
    Частота : 48,0 КГц
    Метод сжатия : С потерями
    Размер потока : 118 Мбайт (4%)
    Язык : English
    Default : Нет
    Forced : Нет
    Аудио #3
    Идентификатор : 4
    Формат : AC-3
    Формат/Информация : Audio Coding 3
    Расширение режима : CM (complete main)
    Параметр Endianness формата : Big
    Идентификатор кодека : A_AC3
    Продолжительность : 43 м.
    Вид битрейта : Постоянный
    Битрейт : 384 Кбит/сек
    Каналы : 6 каналов
    Расположение каналов : Front: L C R, Side: L R, LFE
    Частота : 48,0 КГц
    Метод сжатия : С потерями
    Размер потока : 118 Мбайт (4%)
    Язык : English
    Default : Нет
    Forced : Нет
    Аудио #4
    Идентификатор : 5
    Формат : AC-3
    Формат/Информация : Audio Coding 3
    Расширение режима : CM (complete main)
    Параметр Endianness формата : Big
    Идентификатор кодека : A_AC3
    Продолжительность : 43 м.
    Вид битрейта : Постоянный
    Битрейт : 384 Кбит/сек
    Каналы : 6 каналов
    Расположение каналов : Front: L C R, Side: L R, LFE
    Частота : 48,0 КГц
    Метод сжатия : С потерями
    Размер потока : 118 Мбайт (4%)
    Язык : English
    Default : Нет
    Forced : Нет
    Аудио #5
    Идентификатор : 6
    Формат : AC-3
    Формат/Информация : Audio Coding 3
    Расширение режима : CM (complete main)
    Параметр Endianness формата : Big
    Идентификатор кодека : A_AC3
    Продолжительность : 43 м.
    Вид битрейта : Постоянный
    Битрейт : 384 Кбит/сек
    Каналы : 6 каналов
    Расположение каналов : Front: L C R, Side: L R, LFE
    Частота : 48,0 КГц
    Метод сжатия : С потерями
    Размер потока : 118 Мбайт (4%)
    Язык : English
    Default : Нет
    Forced : Нет
    Аудио #6
    Идентификатор : 7
    Формат : AC-3
    Формат/Информация : Audio Coding 3
    Расширение режима : CM (complete main)
    Параметр Endianness формата : Big
    Идентификатор кодека : A_AC3
    Продолжительность : 43 м.
    Вид битрейта : Постоянный
    Битрейт : 384 Кбит/сек
    Каналы : 6 каналов
    Расположение каналов : Front: L C R, Side: L R, LFE
    Частота : 48,0 КГц
    Метод сжатия : С потерями
    Размер потока : 118 Мбайт (4%)
    Default : Нет
    Forced : Нет
    Текст #1
    Идентификатор : 8
    Формат : UTF-8
    Идентификатор кодека : S_TEXT/UTF8
    Идентификатор кодека/Информация : UTF-8 Plain Text
    Default : Да
    Forced : Нет
    Текст #2
    Идентификатор : 9
    Формат : UTF-8
    Идентификатор кодека : S_TEXT/UTF8
    Идентификатор кодека/Информация : UTF-8 Plain Text
    Default : Нет
    Forced : Нет
    --

    Скриншоты

    ----Внимание! Раздача пополняется по мере выхода новых серий!--

    Внимание! Раздача ведётся путём добавления новых серий!

    Раздача ведётся путём добавления новых серий; при каждом добавлении создётся новый торрент.
    Чтобы начать докачку новой серии, пользователям необходимо сделать следующее:
    1. остановить скачивание,
    2. удалить старый торрент у себя из клиента (старые серии удалять не надо),
    3. скачать новый торрент и запустить его у себя в клиенте вместо старого, при этом указать клиенту путь в старую папку, куда и должно происходить скачивание новых серий.
    Ваш клиент при этом должен произвести хеширование (проверку) старой папки (если не производит сам - помогите ему сделать это), и будет докачивать только те серии которых у вас ещё нет. Старые серии при этом не удаляются, а продолжают раздаваться!
    Eсли вы уже удалили старые серии, то предотвратить повторную закачку старых серий можно, отжав галочку в соответсвующих местах при запуске нового торрента. По возможности, желательно не удалять старые серии как можно дольше, чтобы релизёр не столько продолжал раздавать старые серии, а смог сконцентрироваться на новых.
    Совет для тех, кто не хочет ждать перехеширования:
    Создайте ещё одну папку рядом с папкой сериала (рядом, а не в ней!!!). Каждую новую серию после удачной загрузки копируйте в новую папку так чтобы ваша основная папка всегда была пуста. Когда ваш новый торрент предложит вам закачать все файлы, выберете только последнюю. Для сидирования же укажите адрес новой папки.
    Как закачать отдельный файл из торрента или докачать ранее пропущенные файлы торрента!

    Как закачать отдельный файл

    1. Открыть торрент
    2. Снять галки с тех файлов торрента, которые мы не хотим закачивать. Оставляем только на нужных нам файлах (файле).
    3. Нажать О.К.
    В клиенте utorrent
    Инструкция
    1) Открыть торрент

    2) Снять галки с тех файлов торрента, которые мы не хотим закачивать:
    * либо вручную, снимая с каждого файла галку( скрин №1)
    * либо, нажав кнопку "Снять метки (Select None)", сняв сразу со всех файлов(скрин №2)
    №1

    №2

    Оставляем только на нужных нам файлах (файле).

    3)Нажать О.К
    ------Внимание!!! 04.09. 2015. РАЗДАЧА ОБНОВЛЕНА.Финал сезона. ОБНОВИТЕ ТОРЕНТ ФАЙЛ.ПРИЯТНОГО ПРОСМОТРА . --Релиз от: Nikolai.Baranov --------
    Скачать .torrent

    Скачать торрент-файл бесплатно и на максимальной скорости!

    Как скачивать? · Что такое торрент? · Рейтинг и ограничения

    !ВНИМАНИЕ!
    Сайт не распространяет и не хранит электронные версии произведений, а занимается лишь лишь предоставлением доступа к создаваемому пользователями каталогу ссылок на торрент-файлы, которые содержат только списки хеш-сумм, убедительная просьба с жалобами обращаться напрямую к пользователю. Файлы для обмена на трекере предоставлены пользователями сайта, и администрация не несёт ответственности за их содержание. Просьба не заливать файлы, защищенные авторскими правами, а также файлы нелегального содержания!


    _________________

    Легко быть оптимистом, когда судьба не валит с ног тяжелыми ударами, а лишь иногда легонько шлепает по заднице.


    Последний раз редактировалось: Враг Нароода (2015-09-04 10:29), всего редактировалось 9 раз(а)
    [Профиль] [ЛС]

    -746

    Создавать темы 12-Авг-2015 06:01 (спустя 2 месяца 4 дня)

           

    Внимание! Релиз обновлен! Перекачайте торрент-файл, ®Враг Нароода

    _________________
    Как бы ты высоко не летал, не забывай, с кем ты ползал..
     

    -746

    Создавать темы 12-Авг-2015 07:52 (спустя 2 месяца 4 дня)

           

    Внимание! Релиз обновлен! Перекачайте торрент-файл, ®Враг Нароода

    _________________
    Как бы ты высоко не летал, не забывай, с кем ты ползал..
     

    -746

    Создавать темы 19-Авг-2015 15:31 (спустя 2 месяца 12 дней)

           

    Внимание! Релиз обновлен! Перекачайте торрент-файл, ®Враг Нароода

    _________________
    Как бы ты высоко не летал, не забывай, с кем ты ползал..
     

    -746

    Создавать темы 04-Сен-2015 10:29 (спустя 2 месяца 27 дней)

           

    Внимание! Релиз обновлен! Перекачайте торрент-файл, ®Враг Нароода

    _________________
    Как бы ты высоко не летал, не забывай, с кем ты ползал..
     
    Показать сообщения:    
    Ответить на тему

    Текущее время: Сегодня, в 23:59

    Часовой пояс: GMT + 2



    Вы не можете начинать темы
    Вы не можете отвечать на сообщения
    Вы не можете редактировать свои сообщения
    Вы не можете удалять свои сообщения
    Вы не можете голосовать в опросах
    Вы не можете прикреплять файлы к сообщениям
    Вы не можете скачивать файлы