BitTorrentTracker PerecTracker.org
BitTorrentTracker PerecTracker.org
    
Регистрация  ·  Вход
 
 · 
Забыли пароль?

  • Опасно для жизни! (Леонид Гайдай) [1985, комедия, DVDRip]

    Ответить на тему
     
    Автор Сообщение

    Light

    Создавать темы 06-Июн-2015 20:54

           

    [Цитировать]

    Опасно для жизни!
    Жанр: комедия
    Год выпуска: 1985
    Продолжительность: 01:27:47
    Режиссёр: Леонид Гайдай
    В ролях: Леонид Куравлёв, Лариса Удовиченко, Татьяна Кравченко, Георгий Вицин, Тамаз Толорая, Нина Гребешкова, Борислав Брондуков, Владимир Носик, Михаил Кокшенов, Сергей Филиппов...
    Описание: Спартак Молодцов — человек предельно аккуратный, непримиримый к любому беспорядку. Обнаружив однажды оборванный провод высоковольтной линии, он, разумеется, не мог пройти мимо. Но, как известно, «ни одно доброе дело не остается безнаказанным» — теперь Спартак опаздывает на работу, любимая сестра собирается съехать, а невероятно активный грузин старается ввернуть ему взятку. Тем более, чинить провод никто и не собирается…
    Семпл: http://multi-up.com/1052509
    Качество видео: DVDRip Исходник
    Формат видео: AVI
    Видео: 704x304 (2.32:1), 25 fps, XviD build 73 ~2156 kbps avg, 0.40 bit/pixel
    Аудио: 48 kHz, AC3 Dolby Digital, 2/0 (L,R) ch, ~192 kbps

    MediaInfo

    General
    Complete name : D:\Опасно для жизни!.avi
    Format : AVI
    Format/Info : Audio Video Interleave
    File size : 1.45 GiB
    Duration : 1h 27mn
    Overall bit rate : 2 359 Kbps
    Writing application : VirtualDubMod 1.5.10.3 (build 2550/release)
    Writing library : VirtualDubMod build 2550/release
    Video
    ID : 0
    Format : MPEG-4 Visual
    Format profile : Advanced Simple@L5
    Format settings, BVOP : 1
    Format settings, QPel : No
    Format settings, GMC : No warppoints
    Format settings, Matrix : Custom
    Codec ID : XVID
    Codec ID/Hint : XviD
    Duration : 1h 27mn
    Bit rate : 2 157 Kbps
    Width : 704 pixels
    Height : 304 pixels
    Display aspect ratio : 2.35:1
    Frame rate : 25.000 fps
    Color space : YUV
    Chroma subsampling : 4:2:0
    Bit depth : 8 bits
    Scan type : Progressive
    Compression mode : Lossy
    Bits/(Pixel*Frame) : 0.403
    Stream size : 1.32 GiB (91%)
    Writing library : XviD 73
    Audio
    ID : 1
    Format : AC-3
    Format/Info : Audio Coding 3
    Mode extension : CM (complete main)
    Format settings, Endianness : Big
    Codec ID : 2000
    Duration : 1h 27mn
    Bit rate mode : Constant
    Bit rate : 192 Kbps
    Channel(s) : 2 channels
    Channel positions : Front: L R
    Sampling rate : 48.0 KHz
    Bit depth : 16 bits
    Compression mode : Lossy
    Stream size : 121 MiB (8%)
    Alignment : Split accross interleaves
    Interleave, duration : 40 ms (1.00 video frame)
    Interleave, preload duratio : 500 ms

    Скриншоты

    Скачать .torrent

    Скачать торрент-файл бесплатно и на максимальной скорости!

    Как скачивать? · Что такое торрент? · Рейтинг и ограничения

    !ВНИМАНИЕ!
    Сайт не распространяет и не хранит электронные версии произведений, а занимается лишь лишь предоставлением доступа к создаваемому пользователями каталогу ссылок на торрент-файлы, которые содержат только списки хеш-сумм, убедительная просьба с жалобами обращаться напрямую к пользователю. Файлы для обмена на трекере предоставлены пользователями сайта, и администрация не несёт ответственности за их содержание. Просьба не заливать файлы, защищенные авторскими правами, а также файлы нелегального содержания!


    _________________
    [Профиль] [ЛС]
    Показать сообщения:    
    Ответить на тему

    Текущее время: Сегодня, в 22:10

    Часовой пояс: GMT + 2



    Вы не можете начинать темы
    Вы не можете отвечать на сообщения
    Вы не можете редактировать свои сообщения
    Вы не можете удалять свои сообщения
    Вы не можете голосовать в опросах
    Вы не можете прикреплять файлы к сообщениям
    Вы не можете скачивать файлы