BitTorrentTracker PerecTracker.org
BitTorrentTracker PerecTracker.org
    
Регистрация  ·  Вход
 
 · 
Забыли пароль?

  • Снежная королева (Геннадий Казанский) [1966, сказка, DVDRip-AVC]

    Ответить на тему
     
    Автор Сообщение

    Light

    Создавать темы 06-Июн-2015 16:42

           

    [Цитировать]

    Снежная королева-Жанр: сказка
    Год выпуска: 1966
    Продолжительность: 01:19:38
    Субтитры: русские-Режиссёр: Геннадий Казанский-В ролях:
    Елена Проклова, Вячеслав Цюпа, Евгения Мельникова, Наталья Климова, Николай Боярский, Евгений Леонов, Ирина Губанова, Георгий Корольчук, Ольга Викланд, Эра Зиганшина
    Описание:
    По мотивам одноименной сказки Ганса Христиана Андерсена. Снежная королева умчала маленького Кая в свои ледяные владения и превратила его сердце в осколок льдинки. Но верная Герда доберётся до чертогов Снежной королевы и освободит мальчика из ледового плена...-Исходник | Сэмпл | Кинопоиск-Качество видео: DVDRip-AVC, спасибо intellect
    Формат видео: MKV
    Видео: x264 (High@L4.1); ITU 720@1047x444, Display aspect ratio 2.35:1, 25.000 fps, 2420 Kbps
    Аудио 1: Оригинал: AC-3; 16 bit 48 Khz; 2.0ch 192 Kbps; CBR
    Аудио 2: Оригинал: AC-3; 16 bit 48 Khz; 5.1ch 448 Kbps; CBR (отдельно)
    Формат субтитров: softsub (SRT)

    Дополнительно

    Реставрированный исходник Ленфильма. Нарушение аспекта, серьёзный пересвет красного. Поправлено.Сравнение с исходником:http://screenshotcomparison.com/comparison/130191Сравнение с раздачей:http://perectracker.org/viewtopic.php?t=3753926
    http://screenshotcomparison.com/comparison/130193
    Сравнение с avc релизом:Исключительно для информации (всё равно попросят), не на поглощение.
    У pankrat7 релиз с издания RUSCICO, с другим наполнением, гаммой итп...
    http://perectracker.org/viewtopic.php?t=2568245
    http://screenshotcomparison.com/comparison/130195
    MediaInfo

    -

    x264 log

    avs [info]: 720x444p 669:460 @ 25/1 fps (cfr)
    x264 [info]: using SAR=669/460
    x264 [info]: using cpu capabilities: MMX2 SSE2Fast SSSE3 SSE4.2
    x264 [info]: profile High, level 4.1
    x264 [info]: frame I:730 Avg QP:16.80 size: 65082
    x264 [info]: frame P:21588 Avg QP:19.30 size: 27929
    x264 [info]: frame B:97153 Avg QP:23.04 size: 8184
    x264 [info]: consecutive B-frames: 1.0% 1.4% 4.3% 10.0% 10.1% 49.3% 9.2% 4.3% 3.6% 1.9% 1.8% 2.9% 0.3%
    x264 [info]: mb I I16..4: 1.8% 84.3% 13.9%
    x264 [info]: mb P I16..4: 0.2% 10.5% 1.3% P16..4: 36.4% 26.9% 21.6% 1.3% 0.4% skip: 1.5%
    x264 [info]: mb B I16..4: 0.0% 2.3% 0.2% B16..8: 39.3% 12.9% 3.6% direct:13.0% skip:28.7% L0:40.0% L1:34.0% BI:26.0%
    x264 [info]: 8x8 transform intra:88.5% inter:69.2%
    x264 [info]: coded y,uvDC,uvAC intra: 96.9% 92.0% 67.9% inter: 42.9% 39.4% 7.9%
    x264 [info]: i16 v,h,dc,p: 32% 14% 21% 33%
    x264 [info]: i8 v,h,dc,ddl,ddr,vr,hd,vl,hu: 13% 9% 13% 8% 11% 10% 11% 11% 13%
    x264 [info]: i4 v,h,dc,ddl,ddr,vr,hd,vl,hu: 16% 8% 4% 8% 13% 14% 12% 12% 13%
    x264 [info]: i8c dc,h,v,p: 40% 21% 24% 15%
    x264 [info]: Weighted P-Frames: Y:49.4% UV:39.7%
    x264 [info]: ref P L0: 34.5% 12.4% 14.3% 9.8% 6.8% 6.1% 4.7% 3.5% 3.1% 3.2% 1.5% 0.1%
    x264 [info]: ref B L0: 67.9% 13.4% 5.9% 3.9% 2.8% 2.6% 2.1% 1.0% 0.4%
    x264 [info]: ref B L1: 92.8% 7.2%
    x264 [info]: kb/s:2419.94
    x264 [total]: encoded 119471 frames, 12.08 fps, 2419.94 kb/s
    -General
    Unique ID : 201554722522158781685940814691973676176 (0x97A2070DC432D2FB9EFC52104D433C90)
    Complete name : Снежная королева.1966.mkv
    Format : Matroska
    Format version : Version 2
    File size : 1.45 GiB
    Duration : 1h 19mn
    Overall bit rate : 2 614 Kbps
    Movie name : «Снежная королева»
    Encoded date : UTC 2015-06-05 12:09:32
    Writing application : mkvmerge v5.8.0 ('No Sleep / Pillow') built on Sep 2 2012 15:37:04
    Writing library : libebml v1.2.3 + libmatroska v1.3.0
    Comment : DVDRip-AVC
    Originally released : June 5th 2015
    Encoded by : george$t®
    Video
    ID : 1
    Format : AVC
    Format/Info : Advanced Video Codec
    Format profile : High@L4.1
    Format settings, CABAC : Yes
    Format settings, ReFrames : 10 frames
    Codec ID : V_MPEG4/ISO/AVC
    Duration : 1h 19mn
    Bit rate : 2 370 Kbps
    Width : 720 pixels
    Height : 444 pixels
    Display aspect ratio : 2.35:1
    Frame rate mode : Constant
    Frame rate : 25.000 fps
    Color space : YUV
    Chroma subsampling : 4:2:0
    Bit depth : 8 bits
    Scan type : Progressive
    Bits/(Pixel*Frame) : 0.297
    Stream size : 1.32 GiB (91%)
    Title : Снежная королева.1966
    Writing library : x264 core 146 r2538kMod 121396c
    Encoding settings : cabac=1 / ref=10 / deblock=1:-1:0 / analyse=0x3:0x133 / me=umh / subme=10 / psy=1 / fade_compensate=0.00 / psy_rd=0.95:0.12 / mixed_ref=1 / me_range=24 / chroma_me=1 / trellis=2 / 8x8dct=1 / cqm=0 / deadzone=21,11 / fast_pskip=1 / chroma_qp_offset=-3 / threads=12 / lookahead_threads=3 / sliced_threads=0 / nr=0 / decimate=1 / interlaced=0 / bluray_compat=0 / constrained_intra=0 / fgo=0 / bframes=12 / b_pyramid=2 / b_adapt=2 / b_bias=0 / direct=1 / weightb=1 / open_gop=0 / weightp=2 / keyint=250 / keyint_min=25 / scenecut=40 / intra_refresh=0 / rc_lookahead=75 / rc=crf / mbtree=1 / crf=18.2000 / qcomp=0.65 / qpmin=0 / qpmax=32 / qpstep=4 / vbv_maxrate=50000 / vbv_bufsize=62500 / crf_max=0.0 / nal_hrd=none / filler=0 / ip_ratio=1.30 / aq=1:0.90
    Language : Russian
    Default : Yes
    Forced : No
    Color primaries : BT.601 PAL
    Transfer characteristics : BT.470 System B, BT.470 System G
    Matrix coefficients : BT.601
    Color range : Limited
    Audio
    ID : 2
    Format : AC-3
    Format/Info : Audio Coding 3
    Mode extension : CM (complete main)
    Format settings, Endianness : Big
    Codec ID : A_AC3
    Duration : 1h 19mn
    Bit rate mode : Constant
    Bit rate : 192 Kbps
    Channel(s) : 2 channels
    Channel positions : Front: L R
    Sampling rate : 48.0 KHz
    Bit depth : 16 bits
    Compression mode : Lossy
    Stream size : 109 MiB (7%)
    Title : Оригинал: AC-3; 16 bit 48 Khz; 2.0ch 192 Kbps; CBR
    Language : Russian
    Default : Yes
    Forced : No
    Text
    ID : 3
    Format : UTF-8
    Codec ID : S_TEXT/UTF8
    Codec ID/Info : UTF-8 Plain Text
    Title : Субтитры русские
    Language : Russian
    Default : No
    Forced : No
    Menu
    00:00:00.000 : ru:Пролог
    00:03:32.480 : ru:Титры
    00:05:12.360 : ru:Ледяной советник
    00:10:52.880 : ru:Поцелуй Снежной Королевы
    00:15:59.760 : ru:Ледяное сердце
    00:19:41.520 : ru:Записка Герды
    00:23:35.280 : ru:Придворные вороны
    00:27:56.520 : ru:Ночь во дворце
    00:30:08.680 : ru:Принц и принцесса
    00:34:23.440 : ru:Король
    00:42:05.520 : ru:Дуэль
    00:45:59.120 : ru:Атаманша
    00:52:44.560 : ru:Нападение
    00:55:22.040 : ru:У дочери атаманши
    01:07:26.400 : ru:У Снежной Королевы
    01:14:35.240 : ru:Возвращение Кея

    Скриншоты

    Скачать .torrent

    Скачать торрент-файл бесплатно и на максимальной скорости!

    Как скачивать? · Что такое торрент? · Рейтинг и ограничения

    !ВНИМАНИЕ!
    Сайт не распространяет и не хранит электронные версии произведений, а занимается лишь лишь предоставлением доступа к создаваемому пользователями каталогу ссылок на торрент-файлы, которые содержат только списки хеш-сумм, убедительная просьба с жалобами обращаться напрямую к пользователю. Файлы для обмена на трекере предоставлены пользователями сайта, и администрация не несёт ответственности за их содержание. Просьба не заливать файлы, защищенные авторскими правами, а также файлы нелегального содержания!


    _________________
    [Профиль] [ЛС]

    -746

    Создавать темы 24-Янв-2016 22:15 (спустя 7 месяцев 18 дней)

           

    Топик был перенесен из форума Кино СССР в форум Детские отечественные фильмы


    -sasha2006

    _________________
    Как бы ты высоко не летал, не забывай, с кем ты ползал..
     
    Показать сообщения:    
    Ответить на тему

    Текущее время: Сегодня, в 12:13

    Часовой пояс: GMT + 2



    Вы не можете начинать темы
    Вы не можете отвечать на сообщения
    Вы не можете редактировать свои сообщения
    Вы не можете удалять свои сообщения
    Вы не можете голосовать в опросах
    Вы не можете прикреплять файлы к сообщениям
    Вы не можете скачивать файлы