BitTorrentTracker PerecTracker.org
BitTorrentTracker PerecTracker.org
    
Регистрация  ·  Вход
 
 · 
Забыли пароль?

  • Длинные светлые дни / In Bloom / Eka & Natia (Нана Эквтимишвили / Nana Ekvtimishvili, Саймон Гросс / Simon Groß) [2013, Грузия, Германия, Франция, драма, DVDRip] Sub Rus (rjhlb777) + original

    Ответить на тему
     
    Автор Сообщение

    Light

    Создавать темы 06-Июн-2015 16:42

           

    [Цитировать]

    Длинные светлые дни / In Bloom (Eka & Natia)
    Страна: Грузия, Германия, Франция
    Жанр: драма
    Год выпуска: 2013
    Продолжительность: 01:37:30
    Перевод: Субтитры - rjhlb777
    Cубтитры: русские
    Оригинальная аудиодорожка: грузинский

    Режиссер: Нана Эквтимишвили / Nana Ekvtimishvili, Саймон Гросс / Simon Groß (Gross)
    В ролях: Лика Баблуани, Мариам Бокерия, Зураб Гогаладзе, Дата Закареишвили, Ана Нижарадзе, Маико Нинуа, Тамара Бухникашвили, Темур Чичинадзе, Берта Хапава, Сандро Шаншиашвили
    Описание: 1992 год — первый год после установления независимости в Грузии. Главные героини фильма — быстро взрослеющие четырнадцатилетние Натия и Эка — школьные подруги, которые хотели бы по-прежнему оставться как в детстве веселыми и беззаботными. Но реалии безвременья дают себя знать и судьба приподносит юным героиням не только подарки. На красавицу Натию, влюбленную в симпатичного Ладо, обращает внимание соседский парень Котэ, который решает поступить по правилам гор: украсть невесту. Тогда для Натии начинается новая жизнь.
    Качество видео: DVDRip
    Формат видео: AVI
    Видео: 720x304 (2.37:1), 25 fps, XviD build 73 ~1683 kbps avg, 0.31 bit/pixel
    Аудио: 48 kHz, AC3 Dolby Digital, 3/2 (L,C,R,l,r) + LFE ch, ~448 kbps

    Фрагмент субтитров

    573
    01:08:35,160 --> 01:08:38,152
    Не забудь разбудить Софо.
    У неё сегодня экзамен.
    574
    01:09:32,680 --> 01:09:35,148
    У вас продаются свечи?
    575
    01:09:38,080 --> 01:09:38,956
    Дайте две, пожалуйста.
    576
    01:09:40,840 --> 01:09:42,876
    Штат в Америке?
    577
    01:09:43,000 --> 01:09:46,959
    На "о" начинается
    и на "о" кончается, 5 букв.
    578
    01:09:47,400 --> 01:09:48,355
    Огайо.
    579
    01:09:48,640 --> 01:09:50,551
    ...Огайо, отлично...
    580
    01:09:50,640 --> 01:09:52,312
    А яйца не поступали на продажу?
    Пока нет.
    581
    01:09:53,240 --> 01:09:54,992
    Тренер сборной Аргентины?
    582
    01:09:55,080 --> 01:09:55,637
    Я не знаю.
    583
    01:10:15,520 --> 01:10:16,475
    Ой, Эка!
    584
    01:10:21,200 --> 01:10:22,235
    Как я по тебе соскучилась.

    MediaInfo

    Общее
    Полное имя : H:\In.Bloom_Eka.&.Natia.2013.dvdrip_[1.46]_[teko]\In.Bloom_Eka.&.Natia.2013.dvdrip_[1.46].avi
    Формат : AVI
    Формат/Информация : Audio Video Interleave
    Размер файла : 1,46 Гбайт
    Продолжительность : 1 ч. 37 м.
    Общий поток : 2141 Кбит/сек
    Программа кодирования : VirtualDubMod 1.5.10.3 | www.virtualdub-fr.org || (build 2550/release)
    Библиотека кодирования : VirtualDubMod build 2550/release
    Видео
    Идентификатор : 0
    Формат : MPEG-4 Visual
    Профиль формата : Advanced Simple@L5
    Параметр BVOP формата : 1
    Параметр QPel формата : Нет
    Параметр GMC формата : Без точки перехода
    Параметр матрицы формата : Выборочная
    Идентификатор кодека : XVID
    Идентификатор кодека/Подсказка : XviD
    Продолжительность : 1 ч. 37 м.
    Битрейт : 1683 Кбит/сек
    Ширина : 720 пикселей
    Высота : 304 пикселя
    Соотношение сторон : 2,35:1
    Частота кадров : 25,000 кадров/сек
    Цветовое пространство : YUV
    Субдискретизация насыщенности : 4:2:0
    Битовая глубина : 8 бит
    Тип развёртки : Прогрессивная
    Метод сжатия : С потерями
    Бит/(Пиксели*Кадры) : 0.308
    Размер потока : 1,15 Гбайт (79%)
    Библиотека кодирования : XviD 73
    Аудио
    Идентификатор : 1
    Формат : AC-3
    Формат/Информация : Audio Coding 3
    Расширение режима : CM (complete main)
    Параметр Endianness формата : Big
    Идентификатор кодека : 2000
    Продолжительность : 1 ч. 37 м.
    Вид битрейта : Постоянный
    Битрейт : 448 Кбит/сек
    Каналы : 6 каналов
    Расположение каналов : Front: L C R, Side: L R, LFE
    Частота : 48,0 КГц
    Битовая глубина : 16 бит
    Метод сжатия : С потерями
    Размер потока : 312 Мбайт (21%)
    Выравнивание : Разделение по промежуткам
    Продолжительность промежутка : 40 мс. (1,00 видеокадр)
    Время предзагрузки промежутка : 500 мс.

    Скриншоты

    Релиз группы:

    -
    -
    Скачать .torrent

    Скачать торрент-файл бесплатно и на максимальной скорости!

    Как скачивать? · Что такое торрент? · Рейтинг и ограничения

    !ВНИМАНИЕ!
    Сайт не распространяет и не хранит электронные версии произведений, а занимается лишь лишь предоставлением доступа к создаваемому пользователями каталогу ссылок на торрент-файлы, которые содержат только списки хеш-сумм, убедительная просьба с жалобами обращаться напрямую к пользователю. Файлы для обмена на трекере предоставлены пользователями сайта, и администрация не несёт ответственности за их содержание. Просьба не заливать файлы, защищенные авторскими правами, а также файлы нелегального содержания!


    _________________
    [Профиль] [ЛС]
    Показать сообщения:    
    Ответить на тему

    Текущее время: Сегодня, в 18:35

    Часовой пояс: GMT + 2



    Вы не можете начинать темы
    Вы не можете отвечать на сообщения
    Вы не можете редактировать свои сообщения
    Вы не можете удалять свои сообщения
    Вы не можете голосовать в опросах
    Вы не можете прикреплять файлы к сообщениям
    Вы не можете скачивать файлы