BitTorrentTracker PerecTracker.org
BitTorrentTracker PerecTracker.org
    
Регистрация  ·  Вход
 
 · 
Забыли пароль?

  • Двенадцать месяцев (Анатолий Граник) [1972, сказка, DVDRip-AVC]

    Ответить на тему
     
    Автор Сообщение

    Light

    Создавать темы 05-Июн-2015 11:18

           

    [Цитировать]

    Двенадцать месяцев (2 серии)-Жанр: сказка
    Год выпуска: 1972
    Продолжительность: 02:18:47 (01:03:15 + 01:15:31)-Режиссёр: Анатолий Граник-В ролях:
    Наталья Попова, Лиана Жвания, Николай Волков, Ольга Викланд, Марина Мальцева, Татьяна Пельтцер, Константин Адашевский, Леонид Куравлев, Александр Соколов, Георгий Тейх, Алексей Кожевников, Лев Лемке, Аркадий Трусов, Борис Рыжухин, Александр Афанасьев, Андрей Босов
    Описание:
    По театральной сказке Самуила Маршака. Под вечер, в канун Нового года злая мачеха отправила свою падчерицу в лес за подснежниками. Это история о том, как жадность одной девочки и каприз другой едва не обрекли на гибель третью, добрую и беззащитную. Такую же, как и подснежники, которые она все-таки нашла в новогоднем лесу.-Сэмпл | -Качество видео: DVDRip-AVC, спасибо Buseki
    Формат видео: MKV
    Видео: x264 (High@L4.1); 720@768x576, Display aspect ratio 4:3, 25.000 fps, 2164 Kbps
    Аудио: Оригинал: AC-3; 16 bit 48 Khz; 2.0ch 192 Kbps; CBR

    MediaInfo


    -

    х264 log

    avs [info]: 720x576p 16:15 @ 25/1 fps (cfr)
    x264 [info]: using SAR=16/15
    x264 [info]: using cpu capabilities: MMX2 SSE2Fast SSSE3 SSE4.2
    x264 [info]: profile High, level 4.1
    x264 [info]: frame I:966 Avg QP:20.07 size: 49869
    x264 [info]: frame P:45757 Avg QP:21.45 size: 22459
    x264 [info]: frame B:161462 Avg QP:23.71 size: 7288
    x264 [info]: consecutive B-frames: 1.3% 1.4% 13.9% 18.0% 15.5% 47.4% 2.0% 0.6%
    x264 [info]: mb I I16..4: 4.6% 85.4% 10.0%
    x264 [info]: mb P I16..4: 0.1% 8.9% 0.4% P16..4: 37.4% 39.2% 12.5% 0.9% 0.0% skip: 0.7%
    x264 [info]: mb B I16..4: 0.0% 1.1% 0.0% B16..8: 40.8% 21.3% 2.8% direct: 5.9% skip:28.1% L0:35.9% L1:42.6% BI:21.5%
    x264 [info]: 8x8 transform intra:94.1% inter:73.7%
    x264 [info]: coded y,uvDC,uvAC intra: 98.5% 82.6% 49.0% inter: 34.8% 21.1% 1.4%
    x264 [info]: i16 v,h,dc,p: 7% 7% 35% 52%
    x264 [info]: i8 v,h,dc,ddl,ddr,vr,hd,vl,hu: 12% 6% 4% 9% 13% 15% 12% 15% 13%
    x264 [info]: i4 v,h,dc,ddl,ddr,vr,hd,vl,hu: 10% 5% 2% 9% 16% 18% 15% 14% 13%
    x264 [info]: i8c dc,h,v,p: 32% 24% 25% 19%
    x264 [info]: Weighted P-Frames: Y:50.7% UV:33.7%
    x264 [info]: ref P L0: 43.1% 14.5% 14.1% 7.1% 4.2% 3.6% 2.7% 1.8% 1.4% 1.4% 1.2% 1.2% 1.0% 1.0% 0.9% 0.8%
    x264 [info]: ref B L0: 85.8% 7.1% 2.0% 1.3% 0.8% 0.7% 0.5% 0.4% 0.3% 0.3% 0.2% 0.3% 0.2% 0.2% 0.1%
    x264 [info]: ref B L1: 97.2% 2.8%
    x264 [info]: kb/s:2163.98
    x264 [total]: encoded 208185 frames, 10.14 fps, 2163.98 kb/s, duration 5:42:17.75
    -General
    Unique ID : 226383149617171211669621422633192121698 (0xAA4FCF05572F653B96D7791D8C01E562)
    Complete name : Двенадцать месяцев.1972.mkv
    Format : Matroska
    Format version : Version 2
    File size : 2.29 GiB
    Duration : 2h 18mn
    Overall bit rate : 2 358 Kbps
    Movie name : «Двенадцать месяцев»
    Encoded date : UTC 2015-05-30 17:55:41
    Writing application : mkvmerge v5.8.0 ('No Sleep / Pillow') built on Sep 2 2012 15:37:04
    Writing library : libebml v1.2.3 + libmatroska v1.3.0
    Comment : DVDRip-AVC
    Originally released : May 15th 2015
    Encoded by : george$t®
    Video
    ID : 1
    Format : AVC
    Format/Info : Advanced Video Codec
    Format profile : High@L4.1
    Format settings, CABAC : Yes
    Format settings, ReFrames : 16 frames
    Codec ID : V_MPEG4/ISO/AVC
    Duration : 2h 18mn
    Bit rate : 2 119 Kbps
    Width : 720 pixels
    Height : 576 pixels
    Display aspect ratio : 4:3
    Frame rate mode : Constant
    Frame rate : 25.000 fps
    Standard : PAL
    Color space : YUV
    Chroma subsampling : 4:2:0
    Bit depth : 8 bits
    Scan type : Progressive
    Bits/(Pixel*Frame) : 0.204
    Stream size : 2.05 GiB (90%)
    Title : Двенадцать месяцев.1972
    Writing library : x264 core 146 r2538kMod 121396c
    Encoding settings : cabac=1 / ref=16 / deblock=1:-1:0 / analyse=0x3:0x133 / me=umh / subme=11 / psy=1 / fade_compensate=0.00 / psy_rd=0.90:0.15 / mixed_ref=1 / me_range=48 / chroma_me=1 / trellis=2 / 8x8dct=1 / cqm=0 / deadzone=21,11 / fast_pskip=1 / chroma_qp_offset=-3 / threads=12 / lookahead_threads=2 / sliced_threads=0 / nr=0 / decimate=1 / interlaced=0 / bluray_compat=0 / constrained_intra=0 / fgo=0 / bframes=7 / b_pyramid=2 / b_adapt=2 / b_bias=0 / direct=1 / weightb=1 / open_gop=0 / weightp=2 / keyint=250 / keyint_min=25 / scenecut=40 / intra_refresh=0 / rc_lookahead=40 / rc=crf / mbtree=0 / crf=18.6000 / qcomp=0.65 / qpmin=0 / qpmax=32 / qpstep=4 / vbv_maxrate=50000 / vbv_bufsize=62500 / crf_max=0.0 / nal_hrd=none / filler=0 / ip_ratio=1.35 / pb_ratio=1.25 / aq=1:0.90
    Language : Russian
    Default : Yes
    Forced : No
    Color primaries : BT.601 PAL
    Transfer characteristics : BT.470 System B, BT.470 System G
    Matrix coefficients : BT.601
    Color range : Limited
    Audio
    ID : 2
    Format : AC-3
    Format/Info : Audio Coding 3
    Mode extension : CM (complete main)
    Format settings, Endianness : Big
    Codec ID : A_AC3
    Duration : 2h 18mn
    Bit rate mode : Constant
    Bit rate : 192 Kbps
    Channel(s) : 2 channels
    Channel positions : Front: L R
    Sampling rate : 48.0 KHz
    Bit depth : 16 bits
    Compression mode : Lossy
    Stream size : 191 MiB (8%)
    Title : Оригинал: AC-3; 16 bit 48 Khz; 2.0ch 192 Kbps; CBR
    Language : Russian
    Default : Yes
    Forced : No
    Menu
    00:00:00.000 : ru:Титры. Канун Нового года
    00:12:15.880 : ru:Королева. Указ
    00:23:05.040 : ru:"Травка зеленеет, солнышко блестит..."
    00:28:05.520 : ru:Поручение
    00:40:42.800 : ru:Двенадцать месяцев
    00:50:09.280 : ru:Апрель. Волшебное колечко
    00:55:19.600 : ru:Возвращение домой
    01:06:00.560 : ru:Во дворце королевы.
    01:15:04.520 : ru:Корзина подснежников
    01:22:04.960 : ru:Удивительный рассказ
    01:33:07.240 : ru:В зимнем лесу
    01:40:37.040 : ru:Королева гневается
    01:47:21.680 : ru:Волшебство
    01:54:53.880 : ru:Исполнение желаний
    02:01:37.960 : ru:У новогоднего костра

    Скриншоты

    Скачать .torrent

    Скачать торрент-файл бесплатно и на максимальной скорости!

    Как скачивать? · Что такое торрент? · Рейтинг и ограничения

    !ВНИМАНИЕ!
    Сайт не распространяет и не хранит электронные версии произведений, а занимается лишь лишь предоставлением доступа к создаваемому пользователями каталогу ссылок на торрент-файлы, которые содержат только списки хеш-сумм, убедительная просьба с жалобами обращаться напрямую к пользователю. Файлы для обмена на трекере предоставлены пользователями сайта, и администрация не несёт ответственности за их содержание. Просьба не заливать файлы, защищенные авторскими правами, а также файлы нелегального содержания!


    _________________
    [Профиль] [ЛС]
    Показать сообщения:    
    Ответить на тему

    Текущее время: Сегодня, в 17:26

    Часовой пояс: GMT + 2



    Вы не можете начинать темы
    Вы не можете отвечать на сообщения
    Вы не можете редактировать свои сообщения
    Вы не можете удалять свои сообщения
    Вы не можете голосовать в опросах
    Вы не можете прикреплять файлы к сообщениям
    Вы не можете скачивать файлы