BitTorrentTracker PerecTracker.org
BitTorrentTracker PerecTracker.org
    
Регистрация  ·  Вход
 
 · 
Забыли пароль?

  • Лига Справедливости: Трон Атлантиды / Justice League: Throne of Atlantis (Этан Сполдинг / Ethan Spaulding) [2015, мультфильм, фантастика, боевик, приключения, BDRip] MVO (ZM-SHOW)

    Ответить на тему
     
    Автор Сообщение

    rechyn

    Создавать темы 05-Июн-2015 02:54

           

    [Цитировать]

    Лига Справедливости: Трон Атлантиды
    Justice League: Throne of Atlantis
    Страна: США
    Жанр: мультфильм, фантастика, боевик, приключения
    Продолжительность: 01:12:06
    Год выпуска: 2015-Перевод: Любительский (Многоголосый закадровый) ZM-SHOW
    Русские субтитры: нет
    Режиссёр: Этан Сполдинг / Ethan Spaulding-Роли озвучивали: Кристофер Горам, Мэтт Лантер, Сумали Монтано, Шемар Мур, Джерри О’Коннелл, Джейсон О’Мара, Сэм Уитвер, Мелик Бергер, Стивен Блум, Патрик Кавано-Описание: О противостояние Аквамена и его брата Орма Повелителя Океана, который объявил войну жителям поверхности Земли после смерти короля Атлантиды во время инопланетного вторжения. События «Трона Антлантиды» будут разворачиваться вокруг молодого Артура Карри, который узнает о своем происхождении. Теперь он вынужден объединится с Лигой Справедливости, чтобы остановить Орма. Мы знакомимся с Артуром в очень сложный, поворотный момент его жизни. Его отец умирает, и он остается один, он становится изгоем. Когда армия Атлантиды начинает вторжение на поверхность, Артур еще не знаем о своем происхождении. Однако, как только он узнает о своем наследии, то ему предстоит сделать нелегкий выбор, который в итоге определит его судьбу.-Релиз:
    | | -- Большое спасибо РГ ZM-SHOW за чистый голос и озвучку!
    - Большое спасибо РГ Dakota Family Translators за перевод и субтитры!
    - Работа с BDRemux'ом -Azureus--Качество: BDRip
    Формат: AVI
    Видео: 688x384 (1.79:1), 23.976 fps, XviD 66 ~1 311 kbps avg, 0.21 bit/pixel
    Аудио: 48.0 kHz, MPEG Layer 3, 2/0 (L,R) ch, ~128 kbps
    Субтитры: отсутсвуют

    MI


    General
    Complete name : D:\incarcare\rip gata\Justice.League.Throne.of.Atlantis.2015.BDRip.746[dragomire]_perectracker.org.avi
    Format : AVI
    Format/Info : Audio Video Interleave
    File size : 747 MiB
    Duration : 1h 12mn
    Overall bit rate : 1 448 Kbps
    Writing application : VirtualDubMod 1.5.10.2 (build 2540/release)
    Writing library : VirtualDubMod build 2540/release
    Video
    ID : 0
    Format : MPEG-4 Visual
    Format profile : Advanced Simple@L5
    Format settings, BVOP : 1
    Format settings, QPel : No
    Format settings, GMC : No warppoints
    Format settings, Matrix : Custom
    Codec ID : XVID
    Codec ID/Hint : XviD
    Duration : 1h 12mn
    Bit rate : 1 311 Kbps
    Width : 688 pixels
    Height : 384 pixels
    Display aspect ratio : 16:9
    Frame rate : 23.976 fps
    Color space : YUV
    Chroma subsampling : 4:2:0
    Bit depth : 8 bits
    Scan type : Progressive
    Compression mode : Lossy
    Bits/(Pixel*Frame) : 0.207
    Stream size : 676 MiB (91%)
    Writing library : XviD 66
    Audio
    ID : 1
    Format : MPEG Audio
    Format version : Version 1
    Format profile : Layer 3
    Codec ID : 55
    Codec ID/Hint : MP3
    Duration : 1h 12mn
    Bit rate mode : Constant
    Bit rate : 128 Kbps
    Channel(s) : 2 channels
    Sampling rate : 48.0 KHz
    Compression mode : Lossy
    Stream size : 66.0 MiB (9%)
    Alignment : Aligned on interleaves
    Interleave, duration : 42 ms (1.00 video frame)
    Interleave, preload duratio : 504 ms

    Скриншоты

    Скачать .torrent

    Скачать торрент-файл бесплатно и на максимальной скорости!

    Как скачивать? · Что такое торрент? · Рейтинг и ограничения

    !ВНИМАНИЕ!
    Сайт не распространяет и не хранит электронные версии произведений, а занимается лишь лишь предоставлением доступа к создаваемому пользователями каталогу ссылок на торрент-файлы, которые содержат только списки хеш-сумм, убедительная просьба с жалобами обращаться напрямую к пользователю. Файлы для обмена на трекере предоставлены пользователями сайта, и администрация не несёт ответственности за их содержание. Просьба не заливать файлы, защищенные авторскими правами, а также файлы нелегального содержания!


    _________________
    [Профиль] [ЛС]
    Показать сообщения:    
    Ответить на тему

    Текущее время: Сегодня, в 16:25

    Часовой пояс: GMT + 2



    Вы не можете начинать темы
    Вы не можете отвечать на сообщения
    Вы не можете редактировать свои сообщения
    Вы не можете удалять свои сообщения
    Вы не можете голосовать в опросах
    Вы не можете прикреплять файлы к сообщениям
    Вы не можете скачивать файлы