BitTorrentTracker PerecTracker.org
BitTorrentTracker PerecTracker.org
    
Регистрация  ·  Вход
 
 · 
Забыли пароль?

  • Убийство у моря / Tyskungen (Пер Ханефьорд / Per Hanefjord) [2013, Швеция, Германия, криминал, BDRip-AVC] MVO (Позитив) + Sub Rus + Original Swe

    Ответить на тему
     
    Автор Сообщение

    Light

    Создавать темы 05-Июн-2015 02:54

           

    [Цитировать]

    Убийство у моря / Tyskungen
    Страна: Швеция, Германия
    Жанр: криминал
    Год выпуска: 2013
    Продолжительность: 01:40:48
    Перевод: Профессиональный (многоголосый закадровый) Позитив
    Cубтитры: русские
    Оригинальная аудиодорожка: шведский
    Режиссер: Пер Ханефьорд / Per Hanefjord
    В ролях: Клаудия Галли, Ричард Ульфзэтер, Эва Фритйофсон, Памела Кортес Бруна, Леннарт Якель, Амалия Хольм Бьельке, Фанни Клефельт, Эдвин Эндре, Аксель Мюрберг, Ким Сольфельдт
    Описание: Живописный рыбацкий городок Фьелльбакка на побережье Атлантики выглядит как ожившая туристическая открытка. Именно сюда возвращается автор детективов Эрика, мечтая предаться счастливой семейной жизни и творчеству. Но тихая провинциальная жизнь таит немало секретов. И однажды вековой покой Фьелльбакки взрывается новостью о жестоком убийстве…

    Сэмпл: скачать
    Качество видео: BDRip-AVC [Blu-ray Disc -BLUEBIRD]
    Формат видео: MKV
    Видео: AVC, 1136 x 476 (2,40:1), 2089 kbps, 24,000 fps, 0.161 bpp
    Аудио: AC3, 6ch, 48 kHz, 448 kbps, 16 bit
    Аудио 2: AC3, 6ch, 48 kHz, 448 kbps, 16 bit
    Формат субтитров: softsub (SRT)

    MediaInfo

    Уникальный идентификатор : 231400053884966362621253467958739202624 (0xAE16077F9D3A165294B38EEBBC6BF240)
    Полное имя : F:\Films\Ubiistvo\Tyskungen.mkv
    Формат : Matroska
    Версия формата : Version 4 / Version 2
    Размер файла : 2,19 Гбайт
    Продолжительность : 1 ч. 45 м.
    Общий поток : 2982 Кбит/сек
    Дата кодирования : UTC 2015-06-04 18:11:33
    Программа кодирования : mkvmerge v7.7.0 ('Six Voices') 64bit built on Feb 28 2015 23:39:33
    Библиотека кодирования : libebml v1.3.1 + libmatroska v1.4.2
    _STATISTICS_WRITING_APP : mkvmerge v7.7.0 ('Six Voices') 64bit built on Feb 28 2015 23:39:33
    _STATISTICS_WRITING_DATE_UTC : 2015-06-04 18:11:33
    _STATISTICS_TAGS : BPS DURATION NUMBER_OF_FRAMES NUMBER_OF_BYTES
    DURATION : 01:41:26.583000000
    NUMBER_OF_FRAMES : 722
    NUMBER_OF_BYTES : 38741
    Видео
    Идентификатор : 1
    Формат : AVC
    Формат/Информация : Advanced Video Codec
    Профиль формата : High@L4.1
    Параметр CABAC формата : Да
    Параметр ReFrames формата : 8 кадров
    Идентификатор кодека : V_MPEG4/ISO/AVC
    Продолжительность : 1 ч. 45 м.
    Битрейт : 2089 Кбит/сек
    Ширина : 1136 пикселей
    Высота : 476 пикселей
    Соотношение сторон : 2,40:1
    Соотношение сторон в оригинале : 2,40:1
    Режим частоты кадров : Постоянный
    Частота кадров : 24,000 кадра/сек
    Цветовое пространство : YUV
    Субдискретизация насыщенности : 4:2:0
    Битовая глубина : 8 бит
    Тип развёртки : Прогрессивная
    Бит/(Пиксели*Кадры) : 0.161
    Размер потока : 1,49 Гбайт (68%)
    Библиотека кодирования : x264 core 142 r2431 ac76440
    Настройки программы : cabac=1 / ref=8 / deblock=1:-2:-1 / analyse=0x3:0x133 / me=umh / subme=9 / psy=1 / psy_rd=1.00:0.05 / mixed_ref=0 / me_range=36 / chroma_me=1 / trellis=2 / 8x8dct=1 / cqm=0 / deadzone=21,11 / fast_pskip=0 / chroma_qp_offset=-3 / threads=4 / lookahead_threads=1 / sliced_threads=0 / nr=0 / decimate=0 / interlaced=0 / bluray_compat=0 / constrained_intra=0 / bframes=12 / b_pyramid=2 / b_adapt=2 / b_bias=0 / direct=1 / weightb=1 / open_gop=0 / weightp=2 / keyint=240 / keyint_min=24 / scenecut=40 / intra_refresh=0 / rc=2pass / mbtree=0 / bitrate=2089 / ratetol=1.0 / qcomp=0.65 / qpmin=10 / qpmax=69 / qpstep=4 / cplxblur=20.0 / qblur=0.5 / ip_ratio=1.40 / pb_ratio=1.30 / aq=1:1.00
    Default : Да
    Forced : Нет
    Аудио #1
    Идентификатор : 2
    Формат : AC-3
    Формат/Информация : Audio Coding 3
    Расширение режима : CM (complete main)
    Параметр Endianness формата : Big
    Идентификатор кодека : A_AC3
    Продолжительность : 1 ч. 45 м.
    Вид битрейта : Постоянный
    Битрейт : 448 Кбит/сек
    Каналы : 6 каналов
    Расположение каналов : Front: L C R, Side: L R, LFE
    Частота : 48,0 КГц
    Битовая глубина : 16 бит
    Метод сжатия : С потерями
    Размер потока : 337 Мбайт (15%)
    Заголовок : Русский многоголосый, "Позитив"
    Default : Да
    Forced : Нет
    Аудио #2
    Идентификатор : 3
    Формат : AC-3
    Формат/Информация : Audio Coding 3
    Расширение режима : CM (complete main)
    Параметр Endianness формата : Big
    Идентификатор кодека : A_AC3
    Продолжительность : 1 ч. 45 м.
    Вид битрейта : Постоянный
    Битрейт : 448 Кбит/сек
    Каналы : 6 каналов
    Расположение каналов : Front: L C R, Side: L R, LFE
    Частота : 48,0 КГц
    Битовая глубина : 16 бит
    Метод сжатия : С потерями
    Размер потока : 337 Мбайт (15%)
    Заголовок : Шведский
    Язык : Swedish
    Default : Нет
    Forced : Нет
    Текст
    Идентификатор : 4
    Формат : UTF-8
    Идентификатор кодека : S_TEXT/UTF8
    Идентификатор кодека/Информация : UTF-8 Plain Text
    Заголовок : Русские
    Язык : Russian
    Default : Нет
    Forced : Нет
    Меню
    00:00:00.000 : en:00:00:00.000
    00:09:59.792 : en:00:09:59.792
    00:19:59.958 : en:00:19:59.958
    00:29:59.667 : en:00:29:59.667
    00:39:59.542 : en:00:39:59.542
    00:49:59.542 : en:00:49:59.542
    00:59:59.708 : en:00:59:59.708
    01:09:59.792 : en:01:09:59.792
    01:19:59.542 : en:01:19:59.542
    01:30:00.000 : en:01:30:00.000
    01:39:59.917 : en:01:39:59.917

    Скриншот c названием фильма

    Скриншоты

    Возраст

    18+ - зрителям, достигшим 18 лет
    Скачать .torrent

    Скачать торрент-файл бесплатно и на максимальной скорости!

    Как скачивать? · Что такое торрент? · Рейтинг и ограничения

    !ВНИМАНИЕ!
    Сайт не распространяет и не хранит электронные версии произведений, а занимается лишь лишь предоставлением доступа к создаваемому пользователями каталогу ссылок на торрент-файлы, которые содержат только списки хеш-сумм, убедительная просьба с жалобами обращаться напрямую к пользователю. Файлы для обмена на трекере предоставлены пользователями сайта, и администрация не несёт ответственности за их содержание. Просьба не заливать файлы, защищенные авторскими правами, а также файлы нелегального содержания!


    _________________
    [Профиль] [ЛС]
    Показать сообщения:    
    Ответить на тему

    Текущее время: Сегодня, в 16:35

    Часовой пояс: GMT + 2



    Вы не можете начинать темы
    Вы не можете отвечать на сообщения
    Вы не можете редактировать свои сообщения
    Вы не можете удалять свои сообщения
    Вы не можете голосовать в опросах
    Вы не можете прикреплять файлы к сообщениям
    Вы не можете скачивать файлы