BitTorrentTracker PerecTracker.org
BitTorrentTracker PerecTracker.org
    
Регистрация  ·  Вход
 
 · 
Забыли пароль?

  • Мужские надежды / Men\'s Hopes / Muzi v nadeji (Иржи Вейделэк / Jiri Vejdelek) [2011, Чехия, драма, мелодрама, комедия, HDRip] AVO (Алексеев)

    Ответить на тему
     
    Автор Сообщение

    Light

    Создавать темы 04-Июн-2015 18:30

           

    [Цитировать]

    Мужские надежды / Men's Hopes / Muži v naději--Страна: Чехия
    Жанр: драма, комедия
    Год выпуска: 2011
    Продолжительность:-Перевод: Авторский (одноголосый закадровый) [А. Алексеев]-Cубтитры: нет
    Оригинальная аудиодорожка: нет
    Режиссер: Иржи Вейделэк / Jirí Vejdelek
    В ролях: Иржи Махачек, Болек Поливка, Петра Гржебичкова, Вица Керекеш, Симона Сташова, Лукас Лангмайер, Гинек Сермак, Филип Антонио, Михал Новотны, Йитка Чванчарова...
    Описание: Симпатичный бонвиван и весельчак Рудольф (Болек Поливка) совершенно уверен: "Женщине просто необходимо бороться за своего мужчину, она должна постоянно стараться удержать его. А главное, женщина не должна с ним скучать!..." Рудольф, с завидной для 63-летнего мужчины энергией, довольно успешно реализует свою теорию в повседневной жизни. Разумеется, при таком характере, ему сложно понять наивного и невыносимо корректного зятя Андрея (йиржи Махачек), который с особой ответственностью исполняет свои семейные обязанности, но при этом совершенно не замечает как заскучала его жена ( Петра Гржебичкова). Любящий отец и дружески настроенный тесть решает протянуть Андрею мужскую руку помощи в виде нескольких проверенных советов как оживить обреченный на развал брак. В конце концов, на карту поставлено семейное счастье его единственной дочери... Советы тестя оказались действенными. Вскоре Андрей из скучного зануды с тусклым взглядом превращается в уверенного в себе хозяина положения, которого ценит любовница и обожает собственная жена. Ситуация эта хоть и приятна, но трудно удержима. Уже хотя бы потому, что настоящими хозяевами положения, разумеется, остаются женщины. Андрея ожидает водоворот комических ситуаций, которые он пытается разрулить с типично мужской изворотливостью и изобретательностью, твердо веря в то, что все должно обойтись как нельзя лучше.
    Семпл: http://multi-up.com/1051453
    Качество видео: HDRip
    Формат видео: AVI
    Видео: MPEG-4 Visual at 1442 Кбит/сек; 704 x 400 (1.760) at 25.000 fps
    Аудио: AC-3 at 448 Кбит/сек; 6 каналов, 48,0 КГц
    Автор -

    MediaInfo

    Общее
    Полное имя : D:\Фильмы\Комедии\Мужские надежды\Men's Hopes.2011.HDRip.XviD.1400MB. rip by [Assassin's Creed].avi
    Формат : AVI
    Формат/Информация : Audio Video Interleave
    Размер файла : 1,46 Гбайт
    Продолжительность : 1 ч. 50 м.
    Общий поток : 1900 Кбит/сек
    Программа кодирования : VirtualDubMod 1.5.10.3 | www.virtualdub-fr.org || (build 2550/release)
    Библиотека кодирования : VirtualDubMod build 2550/release
    Видео
    Идентификатор : 0
    Формат : MPEG-4 Visual
    Профиль формата : Advanced Simple@L5
    Параметр BVOP формата : 1
    Параметр QPel формата : Нет
    Параметр GMC формата : Без точки перехода
    Параметр матрицы формата : Default (MPEG)
    Идентификатор кодека : XVID
    Идентификатор кодека/Подсказка : XviD
    Продолжительность : 1 ч. 50 м.
    Битрейт : 1442 Кбит/сек
    Ширина : 704 пикселя
    Высота : 400 пикселей
    Соотношение сторон : 16:9
    Частота кадров : 25,000 кадров/сек
    Цветовое пространство : YUV
    Субдискретизация насыщенности : 4:2:0
    Битовая глубина : 8 бит
    Тип развёртки : Прогрессивная
    Метод сжатия : С потерями
    Бит/(Пиксели*Кадры) : 0.205
    Размер потока : 1,11 Гбайт (76%)
    Библиотека кодирования : XviD 1.2.1 (UTC 2008-12-04)
    Аудио
    Идентификатор : 1
    Формат : AC-3
    Формат/Информация : Audio Coding 3
    Расширение режима : CM (complete main)
    Параметр Endianness формата : Big
    Идентификатор кодека : 2000
    Продолжительность : 1 ч. 50 м.
    Вид битрейта : Постоянный
    Битрейт : 448 Кбит/сек
    Каналы : 6 каналов
    Расположение каналов : Front: L C R, Side: L R, LFE
    Частота : 48,0 КГц
    Битовая глубина : 16 бит
    Метод сжатия : С потерями
    Размер потока : 353 Мбайт (24%)
    Выравнивание : Разделение по промежуткам
    Продолжительность промежутка : 40 мс. (1,00 видеокадр)
    Время предзагрузки промежутка : 500 мс

    Скриншот c названием фильма

    Скриншоты

    Скачать .torrent

    Скачать торрент-файл бесплатно и на максимальной скорости!

    Как скачивать? · Что такое торрент? · Рейтинг и ограничения

    !ВНИМАНИЕ!
    Сайт не распространяет и не хранит электронные версии произведений, а занимается лишь лишь предоставлением доступа к создаваемому пользователями каталогу ссылок на торрент-файлы, которые содержат только списки хеш-сумм, убедительная просьба с жалобами обращаться напрямую к пользователю. Файлы для обмена на трекере предоставлены пользователями сайта, и администрация не несёт ответственности за их содержание. Просьба не заливать файлы, защищенные авторскими правами, а также файлы нелегального содержания!


    _________________
    [Профиль] [ЛС]
    Показать сообщения:    
    Ответить на тему

    Текущее время: Сегодня, в 18:19

    Часовой пояс: GMT + 2



    Вы не можете начинать темы
    Вы не можете отвечать на сообщения
    Вы не можете редактировать свои сообщения
    Вы не можете удалять свои сообщения
    Вы не можете голосовать в опросах
    Вы не можете прикреплять файлы к сообщениям
    Вы не можете скачивать файлы