BitTorrentTracker PerecTracker.org
BitTorrentTracker PerecTracker.org
    
Регистрация  ·  Вход
 
 · 
Забыли пароль?

  • У Чёртова логова (Владимир Иовицэ) [1980, исторический фильм, приключения, VHSRip]

    Ответить на тему
     
    Автор Сообщение

    Light

    Создавать темы 04-Июн-2015 18:30

           

    [Цитировать]

    У Чёртова логова
    Жанр: исторический фильм, приключения
    Год выпуска: 1980
    Продолжительность: 01:19:10
    Режиссёр: Владимир Иовицэ
    В ролях: Григоре Григориу, Думитру Карачобану, Светлана Тома, Ион Шкуря, Василе Константин, Владимир Ломизов, Николае Дарие, Витаутас Томкус, Лесь Сердюк, Василе Тэбырцэ, Георгий Пырля
    Описание: XVIII век. Молдавия под турецким игом. Местная знать сотрудничает с поработителями. По всей округе в Молдавии гремела слава об отряде гайдуков под руководством Груи, наводившем страх на панов и бояр. Но Груя был убит. Каково же было удивление властей, когда они узнали, что объявился новый Груя и готовит месть.
    Доп. информация: Производство: Молдова-фильм
    Премьера: 25 мая 1981 (Москва)
    К сожалению качество исходника-не важное,но это всё,что есть...
    Семпл: https://www.sendspace.com/file/z47owl
    Качество видео: VHSRip
    Формат видео: AVI
    Видео: 720x336 (2.14:1),25 fps,XviD build 50,1355 kbps avg,0.22 bit/pixel.
    Аудио: 44.100 kHz,MPEG Layer 3,2 ch,128.00 kbps avg.

    MediaInfo

    Общее
    Полное имя : E:\У чертова логова.1980.avi
    Формат : AVI
    Формат/Информация : Audio Video Interleave
    Размер файла : 847 Мбайт
    Продолжительность : 1 ч. 19 м.
    Общий поток : 1496 Кбит/сек
    Программа кодирования : Lavf52.93.0
    Видео
    Идентификатор : 0
    Формат : xvid
    Идентификатор кодека : xvid
    Продолжительность : 1 ч. 19 м.
    Битрейт : 1356 Кбит/сек
    Ширина : 720 пикселей
    Высота : 336 пикселей
    Соотношение сторон : 2,143
    Частота кадров : 25,000 кадров/сек
    Бит/(Пиксели*Кадры) : 0.224
    Размер потока : 768 Мбайт (91%)
    Аудио
    Идентификатор : 1
    Формат : MPEG Audio
    Версия формата : Version 1
    Профиль формата : Layer 3
    Режим : Joint stereo
    Расширение режима : MS Stereo
    Идентификатор кодека : 55
    Идентификатор кодека/Подсказка : MP3
    Продолжительность : 1 ч. 19 м.
    Вид битрейта : Постоянный
    Битрейт : 128 Кбит/сек
    Каналы : 2 канала
    Частота : 44,1 КГц
    Метод сжатия : С потерями
    Размер потока : 72,5 Мбайт (9%)
    Выравнивание : Соединение по промежуткам
    Продолжительность промежутка : 26 мс. (0,65 видеокадр)
    Библиотека кодирования : LAME3.98.4

    Скриншоты

    Скачать .torrent

    Скачать торрент-файл бесплатно и на максимальной скорости!

    Как скачивать? · Что такое торрент? · Рейтинг и ограничения

    !ВНИМАНИЕ!
    Сайт не распространяет и не хранит электронные версии произведений, а занимается лишь лишь предоставлением доступа к создаваемому пользователями каталогу ссылок на торрент-файлы, которые содержат только списки хеш-сумм, убедительная просьба с жалобами обращаться напрямую к пользователю. Файлы для обмена на трекере предоставлены пользователями сайта, и администрация не несёт ответственности за их содержание. Просьба не заливать файлы, защищенные авторскими правами, а также файлы нелегального содержания!


    _________________
    [Профиль] [ЛС]
    Показать сообщения:    
    Ответить на тему

    Текущее время: Сегодня, в 19:26

    Часовой пояс: GMT + 2



    Вы не можете начинать темы
    Вы не можете отвечать на сообщения
    Вы не можете редактировать свои сообщения
    Вы не можете удалять свои сообщения
    Вы не можете голосовать в опросах
    Вы не можете прикреплять файлы к сообщениям
    Вы не можете скачивать файлы