Register  ·  Log in
Forgot password?

  • Коррупция (Алексей Поляков) [1989, Криминал, детектив, SATRip]

    Reply to topic
    Author Message


    Post 04-Jun-2015 11:06



    Жанр: Криминал , детектив
    Год выпуска: 1989
    Продолжительность: 1:16:33
    Режиссёр: Алексей Поляков
    В ролях: Владимир Антоник, Александр Блок, Сергей Проханов, Андрей Толубеев, Александра Колкунова, Елена Борзова, Александр Сластин, Рудольф Панков, Владимир Кузнецов (V), Андрей Гриневич
    Описание: В квартире обнаружен труп молодой красивой женщины, хозяйки хорошо обставленного жилища. Инспектор Гуров отвергает версию ограбления: в квартире ничего не тронуто. Подозреваются четверо: муж убитой, ее приятель, сосед по лестничной площадке и лифтерша...
    Доп. информация: Производство: Мосфильм
    На видео местами присутствуют банеры
    Качество видео: SATRip
    Формат видео: AVI
    Видео: XviD MPEG-4 , 704x528 (1.33:1) , 25 fps , 2367 Kbps
    Аудио: AC3 , 48 kHz , 192.00 kbps avg , 2/0 (L,R) ch


    Complete name : D:\Коррупция 1989.avi
    Format : AVI
    Format/Info : Audio Video Interleave
    File size : 1.37 GiB
    Duration : 1h 16mn
    Overall bit rate : 2 569 Kbps
    Writing library : VirtualDub build 35491/release
    ID : 0
    Format : MPEG-4 Visual
    Format profile : Advanced Simple@L5
    Format settings, BVOP : 2
    Format settings, QPel : No
    Format settings, GMC : No warppoints
    Format settings, Matrix : Default (H.263)
    Codec ID : XVID
    Codec ID/Hint : XviD
    Duration : 1h 16mn
    Bit rate : 2 367 Kbps
    Width : 704 pixels
    Height : 528 pixels
    Display aspect ratio : 4:3
    Frame rate : 25.000 fps
    Color space : YUV
    Chroma subsampling : 4:2:0
    Bit depth : 8 bits
    Scan type : Progressive
    Compression mode : Lossy
    Bits/(Pixel*Frame) : 0.255
    Stream size : 1.27 GiB (92%)
    Writing library : XviD 1.2.1 (UTC 2008-12-04)
    ID : 1
    Format : AC-3
    Format/Info : Audio Coding 3
    Mode extension : CM (complete main)
    Format settings, Endianness : Big
    Codec ID : 2000
    Duration : 1h 16mn
    Bit rate mode : Constant
    Bit rate : 192 Kbps
    Channel(s) : 2 channels
    Channel positions : Front: L R
    Sampling rate : 48.0 KHz
    Bit depth : 16 bits
    Compression mode : Lossy
    Stream size : 105 MiB (7%)
    Alignment : Aligned on interleaves
    Interleave, duration : 40 ms (1.00 video frame)
    Interleave, preload duratio : 512 ms


    Download .torrent

    Download free and at maximum speed!

    How to Download? · What is a torrent? · Ratings and Limitations

    The site does not extend and does not store electronic(digital) versions of products, and only gives access to a reference catalogue created by users on torrent-files which contain only lists of the hash-sums, the earnest entreaty, with complaints(abuse) to access directly to the user. Files for an exchange on tracker are given by users of a site, and the administration does not bear the responsibility for their maintenance. The request to not fill in the files protected by copyrights, and also files of the illegal maintenance!

    [Profile] [PM]
    Display posts from previous:    
    Reply to topic

    The time now is: Today 04:39

    All times are GMT + 3 Hours

    You cannot post new topics in this forum
    You cannot reply to topics in this forum
    You cannot edit your posts in this forum
    You cannot delete your posts in this forum
    You cannot vote in polls in this forum
    You cannot attach files in this forum
    You cannot download files in this forum