BitTorrentTracker PerecTracker.org
BitTorrentTracker PerecTracker.org
    
Регистрация  ·  Вход
 
 · 
Забыли пароль?

  • Любовь с акцентом (Резо Гигинеишвили) [2012, комедия, приключения, BDRip]

    Ответить на тему
     
    Автор Сообщение

    rechyn

    Создавать темы 04-Июн-2015 05:54

           

    [Цитировать]

    Любовь с акцентом
    Слоган: «Море любви. Море приключений»
    Студия: апрельМИГпикчерс, Студия «Независимый Кинопроект»
    Жанр: комедия, приключения
    Год выпуска: 2012
    Продолжительность: 01:43:49--Режиссер: Резо Гигинеишвили--В ролях: Светлана Бондарчук, Филипп Янковский, Надежда Михалкова, Анна Михалкова, Никита Ефремов, Артур Смольянинов, Ирина Пегова, Ольга Баблуани, Дута Схиртладзе, Георгий Кипшидзе...--Описание: «Любовь с акцентом» - фильм о настоящей любви: яркой и страстной, зрелой и беспощадной, наивной и нелепой, счастливой и не очень. Истории героев сплетаются в одну большую ироничную комедию о том, что настоящая любовь не знает ни границ, ни законов, ни национальностей. Романтические приключения таких разных и непохожих друг на друга героев под аккомпанемент завораживающей южной природы.--Доп. информация: Kinopoisk | IMDB | Sample--Тип релиза: BDRip Источник: Любовь с акцентом (2012) Blu-ray 1080p AVC DTS 5.1-HDCLUB
    Контейнер: AVI
    Видео: 704x400 (1.76:1), 24,000 fps, XviD build 65 ~1613 kbps avg, 0.31 bit/pixel
    Аудио: 48 kHz, AC3 Dolby Digital, 3/2 (L,C,R,l,r) + LFE ch, ~384.00 kbps avg

    MediaInfo

    General
    Complete name : Любовь с акцентом.avi
    Format : AVI
    Format/Info : Audio Video Interleave
    File size : 1.46 GiB
    Duration : 1h 43mn
    Overall bit rate : 2 007 Kbps
    Movie name : Любовь с акцентом (2012) BDRip
    Director : sociolog_melvas
    Genre : комедия, приключения
    Writing application : VirtualDubMod 1.5.10.2 (build 2540/release)
    Comment : 19.12.2012
    Video
    ID : 0
    Format : MPEG-4 Visual
    Format profile : Advanced Simple@L5
    Format settings, BVOP : 1
    Format settings, QPel : No
    Format settings, GMC : No warppoints
    Format settings, Matrix : Custom
    Codec ID : XVID
    Codec ID/Hint : XviD
    Duration : 1h 43mn
    Bit rate : 1 614 Kbps
    Width : 720 pixels
    Height : 304 pixels
    Display aspect ratio : 2.35:1
    Frame rate : 24.000 fps
    Color space : YUV
    Chroma subsampling : 4:2:0
    Bit depth : 8 bits
    Scan type : Progressive
    Compression mode : Lossy
    Bits/(Pixel*Frame) : 0.307
    Stream size : 1.17 GiB (80%)
    Writing library : XviD 65
    Audio
    ID : 1
    Format : AC-3
    Format/Info : Audio Coding 3
    Mode extension : CM (complete main)
    Format settings, Endianness : Big
    Codec ID : 2000
    Duration : 1h 43mn
    Bit rate mode : Constant
    Bit rate : 384 Kbps
    Channel(s) : 6 channels
    Channel positions : Front: L C R, Side: L R, LFE
    Sampling rate : 48.0 KHz
    Bit depth : 16 bits
    Compression mode : Lossy
    Stream size : 285 MiB (19%)
    Alignment : Split accross interleaves
    Interleave, duration : 42 ms (1.00 video frame)
    Interleave, preload duratio : 500 ms

    Скриншоты

    Скачать .torrent

    Скачать торрент-файл бесплатно и на максимальной скорости!

    Как скачивать? · Что такое торрент? · Рейтинг и ограничения

    !ВНИМАНИЕ!
    Сайт не распространяет и не хранит электронные версии произведений, а занимается лишь лишь предоставлением доступа к создаваемому пользователями каталогу ссылок на торрент-файлы, которые содержат только списки хеш-сумм, убедительная просьба с жалобами обращаться напрямую к пользователю. Файлы для обмена на трекере предоставлены пользователями сайта, и администрация не несёт ответственности за их содержание. Просьба не заливать файлы, защищенные авторскими правами, а также файлы нелегального содержания!


    _________________
    [Профиль] [ЛС]
    Показать сообщения:    
    Ответить на тему

    Текущее время: Сегодня, в 06:14

    Часовой пояс: GMT + 2



    Вы не можете начинать темы
    Вы не можете отвечать на сообщения
    Вы не можете редактировать свои сообщения
    Вы не можете удалять свои сообщения
    Вы не можете голосовать в опросах
    Вы не можете прикреплять файлы к сообщениям
    Вы не можете скачивать файлы