Register  ·  Log in
Forgot password?

  • Любовь с акцентом (Резо Гигинеишвили) [2012, комедия, приключения, BDRip]

    Reply to topic
    Author Message


    Post 04-Jun-2015 06:54



    Любовь с акцентом
    Слоган: «Море любви. Море приключений»
    Студия: апрельМИГпикчерс, Студия «Независимый Кинопроект»
    Жанр: комедия, приключения
    Год выпуска: 2012
    Продолжительность: 01:43:49--Режиссер: Резо Гигинеишвили--В ролях: Светлана Бондарчук, Филипп Янковский, Надежда Михалкова, Анна Михалкова, Никита Ефремов, Артур Смольянинов, Ирина Пегова, Ольга Баблуани, Дута Схиртладзе, Георгий Кипшидзе...--Описание: «Любовь с акцентом» - фильм о настоящей любви: яркой и страстной, зрелой и беспощадной, наивной и нелепой, счастливой и не очень. Истории героев сплетаются в одну большую ироничную комедию о том, что настоящая любовь не знает ни границ, ни законов, ни национальностей. Романтические приключения таких разных и непохожих друг на друга героев под аккомпанемент завораживающей южной природы.--Доп. информация: Kinopoisk | IMDB | Sample--Тип релиза: BDRip Источник: Любовь с акцентом (2012) Blu-ray 1080p AVC DTS 5.1-HDCLUB
    Контейнер: AVI
    Видео: 704x400 (1.76:1), 24,000 fps, XviD build 65 ~1613 kbps avg, 0.31 bit/pixel
    Аудио: 48 kHz, AC3 Dolby Digital, 3/2 (L,C,R,l,r) + LFE ch, ~384.00 kbps avg


    Complete name : Любовь с акцентом.avi
    Format : AVI
    Format/Info : Audio Video Interleave
    File size : 1.46 GiB
    Duration : 1h 43mn
    Overall bit rate : 2 007 Kbps
    Movie name : Любовь с акцентом (2012) BDRip
    Director : sociolog_melvas
    Genre : комедия, приключения
    Writing application : VirtualDubMod (build 2540/release)
    Comment : 19.12.2012
    ID : 0
    Format : MPEG-4 Visual
    Format profile : Advanced Simple@L5
    Format settings, BVOP : 1
    Format settings, QPel : No
    Format settings, GMC : No warppoints
    Format settings, Matrix : Custom
    Codec ID : XVID
    Codec ID/Hint : XviD
    Duration : 1h 43mn
    Bit rate : 1 614 Kbps
    Width : 720 pixels
    Height : 304 pixels
    Display aspect ratio : 2.35:1
    Frame rate : 24.000 fps
    Color space : YUV
    Chroma subsampling : 4:2:0
    Bit depth : 8 bits
    Scan type : Progressive
    Compression mode : Lossy
    Bits/(Pixel*Frame) : 0.307
    Stream size : 1.17 GiB (80%)
    Writing library : XviD 65
    ID : 1
    Format : AC-3
    Format/Info : Audio Coding 3
    Mode extension : CM (complete main)
    Format settings, Endianness : Big
    Codec ID : 2000
    Duration : 1h 43mn
    Bit rate mode : Constant
    Bit rate : 384 Kbps
    Channel(s) : 6 channels
    Channel positions : Front: L C R, Side: L R, LFE
    Sampling rate : 48.0 KHz
    Bit depth : 16 bits
    Compression mode : Lossy
    Stream size : 285 MiB (19%)
    Alignment : Split accross interleaves
    Interleave, duration : 42 ms (1.00 video frame)
    Interleave, preload duratio : 500 ms


    Download .torrent

    Download free and at maximum speed!

    How to Download? · What is a torrent? · Ratings and Limitations

    The site does not extend and does not store electronic(digital) versions of products, and only gives access to a reference catalogue created by users on torrent-files which contain only lists of the hash-sums, the earnest entreaty, with complaints(abuse) to access directly to the user. Files for an exchange on tracker are given by users of a site, and the administration does not bear the responsibility for their maintenance. The request to not fill in the files protected by copyrights, and also files of the illegal maintenance!

    [Profile] [PM]
    Display posts from previous:    
    Reply to topic

    The time now is: Today 11:58

    All times are GMT + 3 Hours

    You cannot post new topics in this forum
    You cannot reply to topics in this forum
    You cannot edit your posts in this forum
    You cannot delete your posts in this forum
    You cannot vote in polls in this forum
    You cannot attach files in this forum
    You cannot download files in this forum