BitTorrentTracker PerecTracker.org
BitTorrentTracker PerecTracker.org
    
Регистрация  ·  Вход
 
 · 
Забыли пароль?

  • Убийцы фазана / Fasandræberne (Миккель Нёргор / Mikkel Nørgaard ) [2014, Дания, Германия, Швеция, Детектив, триллер, криминал, BDRip, HD (720p)] VO + Original + sub (rus, eng, dan)

    Ответить на тему
     
    Автор Сообщение

    rechyn

    Создавать темы 03-Июн-2015 17:18

           

    [Цитировать]

    Убийцы фазана / Fasandræberne
    -
    6.857 / 10 7.10 / 10
    -Год выпуска: 2014
    Страна: Дания, Германия, Швеция
    Жанр: Детектив, триллер, криминал
    Продолжительность: 01:59:41
    Перевод: Одноголосый закадровый (А. Алексеев)
    Оригинальная аудиодорожка: Есть
    Cубтитры: Русские, Английские, Датские
    Режиссёр: Миккель Нёргор
    Сценарий: Николай Арсель, Расмус Хейстерберг, Юсси Адлер-Олсен
    Продюсер: Йонас Баггер, Петер Ольбек Йенсен, Луиза Вест
    Оператор: Эрик Кресс
    Композитор: Патрик Андрен, Уно Хелмерссон, Юхан Сёдерквист
    Художник: Расмус Тьеллесен, Зази Кнеппер
    Монтаж: Мортен Эгхольм, Фредерик Штрунк
    В ролях: Николай Ли Каас, Фарес Фарес, Даника Куркик, Йохан Филип Асбек, Давид Денсик, Сара-Софи Бусснина, Сёрен Пильмарк, Николай Грот, Оле Дюпон, Камилла Готтлиб
    Бюджет: €5 200 000
    Мировая премьера: 18 сентября 2014
    Описание: В 1994 году двое детей близнецов были найдены зверски убитыми в летнем загородном доме. Ряд фактов указывал на причастность к делу группы молодых студентов, но расследование было прекращено, после того как местный отшельник признал себя виновным в этом инциденте.-Качество исходника: BDRemux (HDClub)
    Качество: BDRip
    Тип: HD (720p)
    Контейнер: M4V
    Видео: H.264, 1280x544, 2.35:1, 3 500 Kbps, 23.976 fps
    Аудио 1: Русский/Одноголосый закадровый (А. Алексеев), AAC / 2.0 / 157 Kbps / 48.0 KHz
    Аудио 2: Датский/Оригинальная дорожка , AAC / 2.0 / 157 Kbps / 48.0 KHz
    Аудио 3: Русский/Одноголосый закадровый (А. Алексеев), AC-3 / 5.1 / 640 Kbps / 48.0 KHz
    Аудио 4: Датский/Оригинальная дорожка , AC-3 / 5.1 / 640 Kbps / 48.0 KHz
    Субтитры 1: Русские полные
    Субтитры 2: Английские полные
    Субтитры 3: Датские полные
    -

    iTunes Meta Tags

    Sort Name: Убийцы фазана
    XID: Apple:vendor_id:2014-794374
    contentID: 794374
    Screenwriters: Николай Арсель, Расмус Хейстерберг, Юсси Адлер-Олсен
    Producers: Йонас Баггер, Петер Ольбек Йенсен, Луиза Вест
    Director: Миккель Нёргор
    Cast: Николай Ли Каас, Фарес Фарес, Даника Куркик, Йохан Филип Асбек, Давид Денсик, Сара-Софи Бусснина, Сёрен Пильмарк, Николай Грот, Оле Дюпон, Камилла Готтлиб
    Long Description: В 1994 году двое детей близнецов были найдены зверски убитыми в летнем загородном доме. Ряд фактов указывал на причастность к делу группы молодых студентов, но расследование было прекращено, после того как местный отшельник признал себя виновным в этом инциденте.
    20 лет спустя это дело попадает на стол Карлса Мёрка, который начинает подозревать, что в нем что-то не так...
    Description: В 1994 году двое детей близнецов были найдены зверски убитыми в летнем загородном доме. Ряд фактов указывал на причастность к делу группы молодых студентов, но расследование было прекращено, после того как местный отшельник признал себя виновным в этом инциденте.
    20 лет спустя это дело попадает на стол Карлса Мёрка, который начинает подозревать, что в нем что-то не так...
    Release Date: 2014-09-18T08:00:00Z
    Artist: Миккель Нёргор
    Name: Убийцы фазана

    MediaInfo

    General
    Complete name                            : /Users/imac/HandBrake/Fasandræberne (720p HD).m4v
    Format                                   : MPEG-4
    Codec ID                                 : M4V
    File size                                : 4.26 GiB
    Duration                                 : 1h 59mn
    Overall bit rate mode                    : Variable
    Overall bit rate                         : 5 094 Kbps
    Movie name                               : Убийцы фазана
    Performer                                : Миккель Нёргор
    Recorded date                            : UTC 2014-09-18 08:00:00
    Encoded date                             : UTC 2015-06-03 08:40:12
    Tagged date                              : UTC 2015-06-03 08:43:33
    Cover                                    : Yes
    sonm                                     : Убийцы фазана
    desc                                     : В 1994 году двое детей близнецов были найдены зверски убитыми в летнем загородном доме. Ряд фактов указывал на причастность к делу группы молодых студентов, но расследование было прекращено, после того как местный отшельник признал себя виновным в этом инциденте.  / 20 лет спустя это дело попадает на стол Карлса Мёрка, который начинает подозревать, что в нем что-то не так...
    ldes                                     : В 1994 году двое детей близнецов были найдены зверски убитыми в летнем загородном доме. Ряд фактов указывал на причастность к делу группы молодых студентов, но расследование было прекращено, после того как местный отшельник признал себя виновным в этом инциденте.  / 20 лет спустя это дело попадает на стол Карлса Мёрка, который начинает подозревать, что в нем что-то не так...
    hdvd                                     : 1
    stik                                     : 9
    rtng                                     : 0
    cnID                                     : 794374
    xid                                      : Apple:vendor_id:2014-794374
    iTunMOVI                                 : <?xml version=\"1.0\" encoding=\"UTF-8\"?> / <!DOCTYPE plist PUBLIC \"-//Apple//DTD PLIST 1.0//EN\" \"http://anonym.to/?http://www.apple.com/DTDs/PropertyList-1.0.dtd\"> / <plist version=\"1.0\"> / <dict> /  <key>cast</key> /  <array> /   <dict> /    <key>name</key> /    <string>Николай Ли Каас</string> /   </dict> /   <dict> /    <key>name</key> /    <string>Фарес Фарес</string> /   </dict> /   <dict> /    <key>name</key> /    <string>Даника Куркик</string> /   </dict> /   <dict> /    <key>name</key> /    <string>Йохан Филип Асбек</string> /   </dict> /   <dict> /    <key>name</key> /    <string>Давид Денсик</string> /   </dict> /   <dict> /    <key>name</key> /    <string>Сара-Софи Бусснина</string> /   </dict> /   <dict> /    <key>name</key> /    <string>Сёрен Пильмарк</string> /   </dict> /   <dict> /    <key>name</key> /    <string>Николай Грот</string> /   </dict> /   <dict> /    <key>name</key> /    <string>Оле Дюпон</string> /   </dict> /   <dict> /    <key>name</key> /    <string>Камилла Готтлиб</string> /   </dict> /  </array> /  <key>directors</key> /  <array> /   <dict> /    <key>name</key> /    <string>Миккель Нёргор</string> /   </dict> /  </array> /  <key>producers</key> /  <array> /   <dict> /    <key>name</key> /    <string>Йонас Баггер</string> /   </dict> /   <dict> /    <key>name</key> /    <string>Петер Ольбек Йенсен</string> /   </dict> /   <dict> /    <key>name</key> /    <string>Луиза Вест</string> /   </dict> /  </array> /  <key>screenwriters</key> /  <array> /   <dict> /    <key>name</key> /    <string>Николай Арсель</string> /   </dict> /   <dict> /    <key>name</key> /    <string>Расмус Хейстерберг</string> /   </dict> /   <dict> /    <key>name</key> /    <string>Юсси Адлер-Олсен</string> /   </dict> /  </array> / </dict> / </plist>
    Video #1
    ID                                       : 1
    Format                                   : AVC
    Format/Info                              : Advanced Video Codec
    Format profile                           : High@L3.1
    Format settings, CABAC                   : No
    Format settings, ReFrames                : 3 frames
    Codec ID                                 : avc1
    Codec ID/Info                            : Advanced Video Coding
    Duration                                 : 1h 59mn
    Bit rate mode                            : Variable
    Bit rate                                 : 3 500 Kbps
    Width                                    : 1 280 pixels
    Height                                   : 544 pixels
    Display aspect ratio                     : 2.35:1
    Frame rate mode                          : Variable
    Frame rate                               : 23.976 fps
    Minimum frame rate                       : 23.974 fps
    Maximum frame rate                       : 23.981 fps
    Color space                              : YUV
    Chroma subsampling                       : 4:2:0
    Bit depth                                : 8 bits
    Scan type                                : Progressive
    Bits/(Pixel*Frame)                       : 0.210
    Stream size                              : 2.92 GiB (69%)
    Writing library                          : x264 core 142 r2479 dd79a61
    Encoding settings                        : cabac=0 / ref=3 / deblock=1:-3:-3 / analyse=0x3:0x113 / me=umh / subme=9 / psy=1 / psy_rd=1.00:0.15 / mixed_ref=1 / me_range=32 / chroma_me=1 / trellis=0 / 8x8dct=1 / cqm=0 / deadzone=21,11 / fast_pskip=0 / chroma_qp_offset=-2 / threads=36 / lookahead_threads=3 / sliced_threads=0 / nr=0 / decimate=0 / interlaced=0 / bluray_compat=0 / constrained_intra=0 / bframes=3 / b_pyramid=0 / b_adapt=2 / b_bias=0 / direct=1 / weightb=0 / open_gop=0 / weightp=0 / keyint=240 / keyint_min=24 / scenecut=40 / intra_refresh=0 / rc_lookahead=40 / rc=2pass / mbtree=1 / bitrate=3500 / ratetol=1.0 / qcomp=0.65 / qpmin=0 / qpmax=69 / qpstep=4 / cplxblur=20.0 / qblur=0.5 / vbv_maxrate=9500 / vbv_bufsize=9500 / nal_hrd=none / filler=0 / ip_ratio=1.40 / aq=1:1.10
    Language                                 : Danish
    Encoded date                             : UTC 2015-06-03 08:40:13
    Tagged date                              : UTC 2015-06-03 08:40:22
    Color primaries                          : BT.709-5, BT.1361, IEC 61966-2-4, SMPTE RP177
    Transfer characteristics                 : BT.709-5, BT.1361
    Matrix coefficients                      : BT.709-5, BT.1361, IEC 61966-2-4 709, SMPTE RP177
    Video #2
    ID                                       : 10
    Format                                   : JPEG
    Codec ID                                 : jpeg
    Duration                                 : 1h 59mn
    Bit rate mode                            : Variable
    Bit rate                                 : 436 bps
    Width                                    : 640 pixels
    Height                                   : 272 pixels
    Display aspect ratio                     : 2.35:1
    Frame rate mode                          : Constant
    Frame rate                               : 0.002 fps
    Compression mode                         : Lossy
    Bits/(Pixel*Frame)                       : 1.252
    Stream size                              : 319 KiB (0%)
    Language                                 : Danish
    Encoded date                             : UTC 2015-06-03 08:42:09
    Tagged date                              : UTC 2015-06-03 08:42:09
    Audio #1
    ID                                       : 2
    Format                                   : AAC
    Format/Info                              : Advanced Audio Codec
    Format profile                           : LC
    Codec ID                                 : 40
    Duration                                 : 1h 59mn
    Bit rate mode                            : Variable
    Bit rate                                 : 157 Kbps
    Maximum bit rate                         : 243 Kbps
    Channel(s)                               : 2 channels
    Channel positions                        : Front: L R
    Sampling rate                            : 48.0 KHz
    Compression mode                         : Lossy
    Stream size                              : 134 MiB (3%)
    Language                                 : Russian
    Encoded date                             : UTC 2015-06-03 08:40:13
    Tagged date                              : UTC 2015-06-03 08:40:25
    Audio #2
    ID                                       : 3
    Format                                   : AAC
    Format/Info                              : Advanced Audio Codec
    Format profile                           : LC
    Codec ID                                 : 40
    Duration                                 : 1h 59mn
    Bit rate mode                            : Variable
    Bit rate                                 : 157 Kbps
    Maximum bit rate                         : 241 Kbps
    Channel(s)                               : 2 channels
    Channel positions                        : Front: L R
    Sampling rate                            : 48.0 KHz
    Compression mode                         : Lossy
    Stream size                              : 135 MiB (3%)
    Language                                 : Danish
    Encoded date                             : UTC 2015-06-03 08:41:16
    Tagged date                              : UTC 2015-06-03 08:42:05
    Audio #3
    ID                                       : 4
    Format                                   : AC-3
    Format/Info                              : Audio Coding 3
    Mode extension                           : CM (complete main)
    Format settings, Endianness              : Big
    Codec ID                                 : ac-3
    Duration                                 : 1h 59mn
    Bit rate mode                            : Constant
    Bit rate                                 : 640 Kbps
    Channel(s)                               : 6 channels
    Channel positions                        : Front: L C R, Side: L R, LFE
    Sampling rate                            : 48.0 KHz
    Bit depth                                : 16 bits
    Compression mode                         : Lossy
    Stream size                              : 548 MiB (13%)
    Language                                 : Russian
    Encoded date                             : UTC 2015-06-03 08:41:16
    Tagged date                              : UTC 2015-06-03 08:42:05
    Audio #4
    ID                                       : 5
    Format                                   : AC-3
    Format/Info                              : Audio Coding 3
    Mode extension                           : CM (complete main)
    Format settings, Endianness              : Big
    Codec ID                                 : ac-3
    Duration                                 : 1h 59mn
    Bit rate mode                            : Constant
    Bit rate                                 : 640 Kbps
    Channel(s)                               : 6 channels
    Channel positions                        : Front: L C R, Side: L R, LFE
    Sampling rate                            : 48.0 KHz
    Bit depth                                : 16 bits
    Compression mode                         : Lossy
    Stream size                              : 548 MiB (13%)
    Language                                 : Danish
    Encoded date                             : UTC 2015-06-03 08:41:16
    Tagged date                              : UTC 2015-06-03 08:42:05
    Text #1
    ID                                       : 6
    Format                                   : Timed text
    Muxing mode                              : sbtl
    Codec ID                                 : tx3g
    Duration                                 : 1h 55mn
    Bit rate mode                            : Variable
    Bit rate                                 : 50 bps
    Stream size                              : 41.9 KiB (0%)
    Language                                 : Russian
    Encoded date                             : UTC 2015-06-03 08:41:16
    Tagged date                              : UTC 2015-06-03 08:42:03
    Text #2
    ID                                       : 7
    Format                                   : Timed text
    Muxing mode                              : sbtl
    Codec ID                                 : tx3g
    Duration                                 : 1h 59mn
    Bit rate mode                            : Variable
    Bit rate                                 : 38 bps
    Stream size                              : 32.8 KiB (0%)
    Language                                 : English
    Encoded date                             : UTC 2015-06-03 08:41:16
    Tagged date                              : UTC 2015-06-03 08:42:03
    Text #3
    ID                                       : 8
    Format                                   : Timed text
    Muxing mode                              : sbtl
    Codec ID                                 : tx3g
    Duration                                 : 1h 59mn
    Bit rate mode                            : Variable
    Bit rate                                 : 39 bps
    Stream size                              : 34.1 KiB (0%)
    Language                                 : Danish
    Encoded date                             : UTC 2015-06-03 08:41:16
    Tagged date                              : UTC 2015-06-03 08:42:03
    Text #4
    ID                                       : 9
    Format                                   : Apple text
    Codec ID                                 : text
    Duration                                 : 1h 59mn
    Bit rate mode                            : Variable
    Bit rate                                 : 0 bps
    Stream size                              : 279 Bytes (0%)
    Language                                 : Danish
    Encoded date                             : UTC 2015-06-03 08:42:05
    Tagged date                              : UTC 2015-06-03 08:42:05
    Menu
    00:00:00.000                             : Chapter 1
    00:10:00.099                             : Chapter 2
    00:19:59.740                             : Chapter 3
    00:29:59.881                             : Chapter 4
    00:39:59.731                             : Chapter 5
    00:49:59.914                             : Chapter 6
    00:59:59.679                             : Chapter 7
    01:10:00.029                             : Chapter 8
    01:20:00.087                             : Chapter 9
    01:30:00.103                             : Chapter 10
    01:39:59.660                             : Chapter 11
    01:49:59.885                             : Chapter 12

    x264 лог

    x264 [info]: frame I:1688  Avg QP:11.34  size: 93842
    x264 [info]: frame P:58604 Avg QP:13.31  size: 32675
    x264 [info]: frame B:111890 Avg QP:13.93  size:  9491
    x264 [info]: consecutive B-frames:  3.2% 18.7% 35.7% 42.5%
    x264 [info]: mb I  I16..4: 10.6% 62.3% 27.1%
    x264 [info]: mb P  I16..4:  3.2%  9.6%  2.8%  P16..4: 39.6% 27.3% 11.3%  0.0%  0.0%    skip: 6.2%
    x264 [info]: mb B  I16..4:  0.4%  1.2%  0.3%  B16..8: 40.6% 15.6%  2.3%  direct: 5.3%  skip:34.2%  L0:44.4% L1:46.7% BI: 8.9%
    x264 [info]: 8x8 transform intra:61.5% inter:42.2%
    x264 [info]: coded y,uvDC,uvAC intra: 76.0% 69.9% 55.0% inter: 25.0% 23.6% 13.6%
    x264 [info]: i16 v,h,dc,p: 53% 11%  9% 27%
    x264 [info]: i8 v,h,dc,ddl,ddr,vr,hd,vl,hu: 10%  9% 18%  9% 11% 12% 11% 10% 10%
    x264 [info]: i4 v,h,dc,ddl,ddr,vr,hd,vl,hu: 11%  9%  8% 11% 16% 15% 12% 10%  8%
    x264 [info]: i8c dc,h,v,p: 60% 15% 18%  8%
    x264 [info]: ref P L0: 64.1% 20.7% 15.2%
    x264 [info]: ref B L0: 72.1% 27.9%
    x264 [info]: kb/s:3492.61

    Скриншоты

    -

    Релиз подготовлен для просмотра на Apple TV, iPad, iPhone, iPod Touch.
    Для просмотра данного релиза на компьютере с ОС Windows рекомендуется использовать VLC media player
    Скачать .torrent

    Скачать торрент-файл бесплатно и на максимальной скорости!

    Как скачивать? · Что такое торрент? · Рейтинг и ограничения

    !ВНИМАНИЕ!
    Сайт не распространяет и не хранит электронные версии произведений, а занимается лишь лишь предоставлением доступа к создаваемому пользователями каталогу ссылок на торрент-файлы, которые содержат только списки хеш-сумм, убедительная просьба с жалобами обращаться напрямую к пользователю. Файлы для обмена на трекере предоставлены пользователями сайта, и администрация не несёт ответственности за их содержание. Просьба не заливать файлы, защищенные авторскими правами, а также файлы нелегального содержания!


    _________________
    [Профиль] [ЛС]
    Показать сообщения:    
    Ответить на тему

    Текущее время: Сегодня, в 00:04

    Часовой пояс: GMT + 2



    Вы не можете начинать темы
    Вы не можете отвечать на сообщения
    Вы не можете редактировать свои сообщения
    Вы не можете удалять свои сообщения
    Вы не можете голосовать в опросах
    Вы не можете прикреплять файлы к сообщениям
    Вы не можете скачивать файлы