BitTorrentTracker PerecTracker.org
BitTorrentTracker PerecTracker.org
    
Регистрация  ·  Вход
 
 · 
Забыли пароль?

  • Самсон и Салли / Samson og Sally (Янник Хаструп / Jannik Hastrup) [1984, Приключения, семейный, DVDRip] VO (Max Nabokov)

    Ответить на тему
     
    Автор Сообщение

    rechyn

    Создавать темы 03-Июн-2015 04:42

           

    [Цитировать]

    Самсон и Салли / Samson og Sally
    Страна: Дания, Швеция
    Жанр: Приключения, семейный
    Продолжительность: 00:59:59
    Год выпуска: 1984
    Перевод: Одноголосый закадровый (Max Nabokov)
    Русские субтитры: нет
    Режиссёр: Янник Хаструп / Jannik Hastrup
    Роли озвучивали: Джеспер Клейн, Хелле Херц, Per Pallesen, Бодил Удсен, Пол Томсен, Kirsten Peuliche, Berthe Qvistgaard, Клаус Рискьяр, Пребен Неергаард, Оле Эрнст
    Описание: Молодой кит Самсон страдает от одиночества. У него совсем нет друзей, и из-за этого огромный океан кажется излишне просторным и пустым. Мама воспитывает его на рассказах о легендарном Моби Дике, папа пытается научить его выживать в нелегких условиях подводного мира. Они подбирают крошку Салли, мать которой убили китоловы. И вот, когда в очередной раз китоловы намерены напасть на китов, а на поверхности моря разлито огромное нефтяное пятно, Самсон отправляется на поиски того самого легендарного Моби Дика…

    Семпл
    Качество: DVDRip
    Формат: AVI
    Видео: Xvid 704x304 25fps 1612kbps
    Аудио: MP3 48000Hz stereo 128kbps

    Подробные технические данные

    GeneralComplete name : D:\MOVIE\SamsonOgSally.1984.Jannik Hastrup(Max Nabokov).aviFormat : AVIFormat/Info : Audio Video InterleaveFile size : 751 MiBDuration : 59mn 59sOverall bit rate : 1 750 KbpsWriting application : VirtualDubMod 1.5.10.2 (build 2540/release)Writing library : VirtualDubMod build 2540/release
    VideoID : 0Format : MPEG-4 VisualFormat profile : Advanced Simple@L5Format settings, BVOP : 2Format settings, QPel : NoFormat settings, GMC : No warppointsFormat settings, Matrix : CustomCodec ID : XVIDCodec ID/Hint : XviDDuration : 59mn 59sBit rate : 1 613 KbpsWidth : 704 pixelsHeight : 304 pixelsDisplay aspect ratio : 2.35:1Frame rate : 25.000 fpsColor space : YUVChroma subsampling : 4:2:0Bit depth : 8 bitsScan type : ProgressiveCompression mode : LossyBits/(Pixel*Frame) : 0.301Stream size : 692 MiB (92%)Writing library : XviD 65
    AudioID : 1Format : MPEG AudioFormat version : Version 1Format profile : Layer 3Codec ID : 55Codec ID/Hint : MP3Duration : 59mn 58sBit rate mode : ConstantBit rate : 128 KbpsChannel(s) : 2 channelsSampling rate : 48.0 KHzCompression mode : LossyStream size : 54.9 MiB (7%)Alignment : Aligned on interleavesInterleave, duration : 40 ms (1.00 video frame)Interleave, preload duration : 504 msWriting library : LAME3.99rEncoding settings : -m s -V 4 -q 3 -lowpass 17 -b 128

    Скриншоты



    Скачать .torrent

    Скачать торрент-файл бесплатно и на максимальной скорости!

    Как скачивать? · Что такое торрент? · Рейтинг и ограничения

    !ВНИМАНИЕ!
    Сайт не распространяет и не хранит электронные версии произведений, а занимается лишь лишь предоставлением доступа к создаваемому пользователями каталогу ссылок на торрент-файлы, которые содержат только списки хеш-сумм, убедительная просьба с жалобами обращаться напрямую к пользователю. Файлы для обмена на трекере предоставлены пользователями сайта, и администрация не несёт ответственности за их содержание. Просьба не заливать файлы, защищенные авторскими правами, а также файлы нелегального содержания!


    _________________
    [Профиль] [ЛС]
    Показать сообщения:    
    Ответить на тему

    Текущее время: Сегодня, в 21:28

    Часовой пояс: GMT + 2



    Вы не можете начинать темы
    Вы не можете отвечать на сообщения
    Вы не можете редактировать свои сообщения
    Вы не можете удалять свои сообщения
    Вы не можете голосовать в опросах
    Вы не можете прикреплять файлы к сообщениям
    Вы не можете скачивать файлы