BitTorrentTracker PerecTracker.org
BitTorrentTracker PerecTracker.org
    
Регистрация  ·  Вход
 
 · 
Забыли пароль?

  • Миссисипи в огне / Mississippi Burning (Алан Паркер) [1988, США, триллер, драма, криминал, детектив, BDRip HD (720p), SD] DUB, DVO, Original + SUB (eng)

    Ответить на тему
     
    Автор Сообщение

    rechyn

    Создавать темы 03-Июн-2015 00:30

           

    [Цитировать]

    Миссисипи в огне / Mississippi Burning
    "1964. When America was at war with itself"
    7.821 / 10
    -Год выпуска: 1988
    Страна: США
    Жанр: триллер, драма, криминал, детектив
    Продолжительность: 128 мин.
    Перевод: Профессиональный дублированный перевод, двухголосый закадровый перевод и одноголосый закадровый авторский перевод
    Оригинальная аудиодорожка: Есть
    Cубтитры: Английские полные, английские полные SDH и английские полные цветные SDH
    Режиссёр: Алан Паркер
    Сценарий: Крис Джеролмо
    Продюсер: Роберт Ф. Коулсберри, Фредерик Золло
    Оператор: Питер Бижу
    Композитор: Тревор Джонс
    Художник: Филип Харрисон, Джеффри Керклэнд, Джон Виллетт
    Монтаж: Джерри Хэмблинг
    В ролях: Джин Хэкмен, Уиллем Дефо, Фрэнсис МакДорманд, Брэд Дуриф, Р. Ли Эрми, Гейлард Сартейн, Стивен Тоболовски, Майкл Рукер, Прюитт Тэйлор Винс, Баджа Джола
    Роли дублировали: Николай Пеньков, Владимир Антоник, Анна Каменкова, Александр Соловьев, Владимир Ферапонтов
    Бюджет: $15 000 000
    Сборы в США: $34 603 943
    Мировая премьера: 9 декабря 1988
    Описание: Миссисипи 1964г. Убийство трех борцов за права человека поднимает волну массовых беспорядков. Два агента ФБР - Андерсон и Уорд получают задание - расследовать дело и найти преступников.
    Жена местного шерифа, помогающая Андерсону и Уорду в ведении дела, открывает секрет, бросающий тень на главных людей в городе, делая тех участниками кровавого заговора. Но это не останавливает Андерсона, агента с многолетним опытом. Он знает, что иногда для достижения цели необходимо преступить закон, иначе убийцы останутся на свободе.-Качество исходника: BD-Remux 1080p (HDClub)
    Качество: BDRip
    Тип: 480p 720p
    Контейнер: m4v
    Видео: 640x460 анаморф 852x460 at 23.976 fps, MPEG-4 AVC, ~1800 kbps avg
    Видео: 1280x694 at 23.976 fps, MPEG-4 AVC, ~6500 kbps avg
    Аудио#1: Russian: 48 kHz, ААС, 2/0 (L,R), ~128.00 / 192.00 kbps avg |Советский дубляж|
    Аудио#2: Russian: 48 kHz, ААС, 2/0 (L,R), ~128.00 / 192.00 kbps avg |Двухголосый закадровый|
    Аудио#3: Russian: 48 kHz, ААС, 2/0 (L,R), ~128.00 / 192.00 kbps avg |Одноголосый закадровый, Ю. Сербин|
    Аудио#4: English: 48 kHz, ААС, 2/0 (L,R), ~128.00 / 192.00 kbps avg
    Аудио#5: English: 48 kHz, ААС, 2/0 (L,R), ~128.00 / 192.00 kbps avg |Commentary|
    Субтитры №1: English: |Полные|
    Субтитры №2: English: |Полные, SDH|
    Субтитры №3: English: |Полные, SDH Colored|-

    из книги «3500 кинорецензий»


    Криминально-политическая ретро-драма (Сергей Кудрявцев 8/10)
    Американские фильмы, которые острокритично анализируют проявления насилия, коррупции, расовой дискриминации, конфликты на национальной почве, систему выборов и т. д., ранее воспринимались нами сочувственно, но с некоторой дистанции (это же ведь у них!). Но затем неожиданно оказались абсолютно актуальными, приближенными к нашей действительности (вплоть до переклички или совпадения каких-то деталей), стали «брать за живое», заставлять по-настоящему сопереживать и сострадать. И дело, конечно, не только в том, что американцы умеют эффектно и кинематографически убедительно рассказывать о социальных проблемах, заинтересовывая своих разборчивых (ведь выбор немал!) зрителей.
    Два агента из ФБР — Руперт Андерсон и Алан Уорд — расследуют дело об убийстве куклуксклановцами трёх активистов из Лиги по защите прав человека. Это происходит на юге США, в штате Миссисипи, в июне 1964 года, в тот период, когда в стране обострились расовые конфликты. Причём эфбээровцев встречают настороженно как белые, так и чернокожие жители городка. А ещё чинит всякие препятствия местный шериф Стаки. Но Андерсон и Уорд — отнюдь не те люди, которых что-либо может остановить.
    На основе довольно расхожей фабулы, которая была растиражирована во многих лентах США за предшествующую четверть века, английский режиссёр Алан Паркер (это лишь третья его чисто американская работа) создал неординарное произведение, привлёкшее внимание и зрителей, и критиков в разных странах мира. Актёр Джин Хэкмен, который исполнил роль Андерсона, получил приз за роль на кинофестивале в Западном Берлине. Операторская работа Питера Бижу удостоилась «Оскара», а картина в целом тоже была в числе соискателей.
    Думается, что успех Паркера связан с его удивительной способностью даже на основе реальных историй (а всё происшедшее в фильме было на самом деле) творить обобщённые по смыслу произведения, порой становящиеся притчами о насилии и власти, беззащитности человека перед системой подавления. Начиная с «Полуночного «экспресса» (1978), этот постановщик разрабатывал, по сути, одну и ту же тему, но в разных регистрах и тональностях, используя различные обертона, неожиданно переключая повествование с одного уровня на другой. Он говорил об унижении человеческого достоинства в жестоком мире, а также о существовании независимой индивидуальности, которая жаждет свободы среди стен, под давящим прессом институтов власти, моральных предрассудков и нетерпимости в обществе.
    Паркер в своём творчестве вообще протестует против тоталитаризма во всех его проявлениях, в том числе — и против того, который используется вроде бы для благих целей: для разрушения стен и барьеров. Он не приемлет личность, превращённую в «винтик», марионетку в чужих руках. И в то же время не может принять хаос индивидуализма, сознательный или стихийный личный террор против всех и вся. Позиция режиссёра гуманна, проникнута болью и сочувствием к отдельному человеку. Можно было бы определить её так: «непротивление злу насилием». Долго подвергаемая сомнению толстовская формула приобретает в наше смутное и неспокойное время особый смысл. Иначе говоря, Алан Паркер проповедует истинную терпимость.
    Вот и герои «Миссисипи в огне» — не столько бравые молодчики из ФБР, которые насаждают закон и справедливость среди неразумных сограждан, потомков рабовладельцев Юга, а живые люди со своими слабостями и заблуждениями, чуть ли не ежеминутно вынужденные решать проблему оправданности собственных действий, их соответствия долгу и высоким целям. Более молодой и неопытный Алан Уорд идеалистичнее и бескомпромисснее умудрённого, наученного самой жизнью Руперта Андерсона, который груб, несдержан, допускает просчёты, но честно делает своё дело, «расчищает обломки», и за этим героем — правда жизни, подчас горькая, но необходимая.
    Нетрудно было бы представить (а ряд отечественных фильмов о борьбе с мафией как раз дают такую возможность), как наши постановщики живописали бы разгул насилия, жестокие и порочные нравы «где-то на юге страны». А действительно талантливая работа «Миссисипи в огне» возносится от «жареных фактов» к высотам человеческой трагедии. Поэтому она воспринимается не как «случай из жизни в штате Миссисипи», но притча о столкновении добра и зла, понятная и близкая людям далеко от главной реки Америки.
    1990

    -

    iTunes Meta Tags for country ru

    Name: Миссисипи В Огне.
    Artist: Alan Parker
    Genre: Драма
    Release Date: 1988-12-09T08:00:00Z
    Description: Миссисипи 1964г. Убийство трех борцов за права человека поднимает волну массовых беспорядков. Два агента ФБР - Андерсон и Уорд получают задание - расследовать дело и найти преступников...
    Long Description: Миссисипи 1964г. Убийство трех борцов за права человека поднимает волну массовых беспорядков. Два агента ФБР - Андерсон и Уорд получают задание - расследовать дело и найти преступников.
    Жена местного шерифа, помогающая Андерсону и Уорду в ведении дела, открывает секрет, бросающий тень на главных людей в городе, делая тех участниками кровавого заговора. Но это не останавливает Андерсона, агента с многолетним опытом. Он знает, что иногда для достижения цели необходимо преступить закон, иначе убийцы останутся на свободе.
    Rating: 16+
    Studio: MGM
    Cast: Джин Хэкмен, Уиллем Дефо, Фрэнсис МакДорманд, Брэд Дуриф, Р. Ли Эрми, Гейлард Сартейн, Стивен Тоболовски, Майкл Рукер, Прюитт Тэйлор Винс, Баджа Джола
    Director: Алан Паркер
    Producers: Роберт Ф. Коулсберри, Фредерик Золло
    Screenwriters: Крис Джеролмо
    Copyright: © ORION PICTURES CORPORATION
    contentID: 834495884
    XID: Apple:vendor_id:1988-2970
    Sort Name: Миссисипи В Огне.

    iTunes Meta Tags for country us

    Name: Mississippi Burning
    Artist: Alan Parker
    Genre: Drama
    Release Date: 1988-12-09T08:00:00Z
    Description: Миссисипи 1964г. Убийство трех борцов за права человека поднимает волну массовых беспорядков. Два агента ФБР - Андерсон и Уорд получают задание - расследовать дело и найти преступников...
    Long Description: Миссисипи 1964г. Убийство трех борцов за права человека поднимает волну массовых беспорядков. Два агента ФБР - Андерсон и Уорд получают задание - расследовать дело и найти преступников.
    Жена местного шерифа, помогающая Андерсону и Уорду в ведении дела, открывает секрет, бросающий тень на главных людей в городе, делая тех участниками кровавого заговора. Но это не останавливает Андерсона, агента с многолетним опытом. Он знает, что иногда для достижения цели необходимо преступить закон, иначе убийцы останутся на свободе.
    Rating: R
    Studio: MGM
    Cast: Джин Хэкмен, Уиллем Дефо, Фрэнсис МакДорманд, Брэд Дуриф, Р. Ли Эрми, Гейлард Сартейн, Стивен Тоболовски, Майкл Рукер, Прюитт Тэйлор Винс, Баджа Джола
    Director: Алан Паркер
    Producers: Роберт Ф. Коулсберри, Фредерик Золло
    Screenwriters: Крис Джеролмо
    Copyright: © ORION PICTURES CORPORATION
    contentID: 834495884
    XID: Apple:vendor_id:1988-2970
    Sort Name: Mississippi Burning

    MediaInfo 480p Release

    General
    Complete name : Mississippi Burning.m4v
    Format : MPEG-4
    Codec ID : M4V
    File size : 2.13 GiB
    Duration : 2h 7mn
    Overall bit rate mode : Variable
    Overall bit rate : 2 391 Kbps
    Movie name : Mississippi Burning
    Performer : Alan Parker
    Director : Алан Паркер
    Actor : Джин Хэкмен / Уиллем Дефо / Фрэнсис МакДорманд / Брэд Дуриф / Р. Ли Эрми / Гейлард Сартейн / Стивен Тоболовски / Майкл Рукер / Прюитт Тэйлор Винс / Баджа Джола
    Screenplay by : Крис Джеролмо
    Producer : Роберт Ф. Коулсберри / Фредерик Золло
    Production studio : MGM
    Genre : Drama
    ContentType : Short Film
    Description : Миссисипи 1964г. Убийство трех борцов за права человека поднимает волну массовых беспорядков. Два агента ФБР - Андерсон и Уорд получают задание - расследовать дело и найти преступников...
    Recorded date : UTC 1988-12-09 08:00:00
    Encoded date : UTC 2015-06-02 07:58:27
    Tagged date : UTC 2015-06-02 09:21:54
    Copyright : © ORION PICTURES CORPORATION
    Cover : Yes
    Rating : None
    Title/Sort : Mississippi Burning
    LongDescription : Миссисипи 1964г. Убийство трех борцов за права человека поднимает волну массовых беспорядков. Два агента ФБР - Андерсон и Уорд получают задание - расследовать дело и найти преступников. / Жена местного шерифа, помогающая Андерсону и Уорду в ведении дела, открывает секрет, бросающий тень на главных людей в городе, делая тех участниками кровавого заговора. Но это не останавливает Андерсона, агента с многолетним опытом. Он знает, что иногда для достижения цели необходимо преступить закон, иначе убийцы останутся на свободе.
    AppleStoreCatalogID : 834495884
    Vendor : Apple:vendor_id:1988-2970
    ContentRating : mpaa|R|400|
    Video #1
    ID : 1
    Format : AVC
    Format/Info : Advanced Video Codec
    Format profile : Baseline@L3
    Format settings, CABAC : No
    Format settings, ReFrames : 2 frames
    Codec ID : avc1
    Codec ID/Info : Advanced Video Coding
    Duration : 2h 6mn
    Bit rate : 1 800 Kbps
    Width : 640 pixels
    Height : 460 pixels
    Display aspect ratio : 1.85:1
    Frame rate mode : Variable
    Frame rate : 23.976 fps
    Minimum frame rate : 11.989 fps
    Maximum frame rate : 23.981 fps
    Color space : YUV
    Chroma subsampling : 4:2:0
    Bit depth : 8 bits
    Scan type : Progressive
    Bits/(Pixel*Frame) : 0.255
    Stream size : 1.59 GiB (75%)
    Title : Main Program
    Writing library : x264 core 125
    Encoding settings : cabac=0 / ref=2 / deblock=1:0:0 / analyse=0x1:0x111 / me=umh / subme=6 / psy=1 / psy_rd=1.00:0.00 / mixed_ref=1 / me_range=16 / chroma_me=1 / trellis=0 / 8x8dct=0 / cqm=0 / deadzone=21,11 / fast_pskip=1 / chroma_qp_offset=-2 / threads=6 / lookahead_threads=1 / sliced_threads=0 / nr=0 / decimate=1 / interlaced=0 / bluray_compat=0 / constrained_intra=0 / bframes=0 / weightp=0 / keyint=240 / keyint_min=24 / scenecut=40 / intra_refresh=0 / rc_lookahead=40 / rc=2pass / mbtree=1 / bitrate=1800 / ratetol=1.0 / qcomp=0.60 / qpmin=3 / qpmax=69 / qpstep=4 / cplxblur=20.0 / qblur=0.5 / vbv_maxrate=5000 / vbv_bufsize=5000 / nal_hrd=none / ip_ratio=1.40 / aq=1:1.00
    Language : English
    Encoded date : UTC 2015-06-02 07:58:27
    Tagged date : UTC 2015-06-02 08:01:08
    Color range : Limited
    Color primaries : BT.709
    Transfer characteristics : BT.709
    Matrix coefficients : BT.709
    Video #2
    ID : 11
    Format : JPEG
    Codec ID : jpeg
    Duration : 2h 6mn
    Bit rate mode : Variable
    Bit rate : 1 352 bps
    Width : 640 pixels
    Height : 345 pixels
    Display aspect ratio : 1.85:1
    Frame rate mode : Variable
    Frame rate : 0.003 fps
    Minimum frame rate : 0.002 fps
    Maximum frame rate : 0.006 fps
    Color space : YUV
    Chroma subsampling : 4:2:0
    Bit depth : 8 bits
    Compression mode : Lossy
    Bits/(Pixel*Frame) : 2.041
    Stream size : 1.29 MiB (0%)
    Title : Chapter Images
    Language : English
    Encoded date : UTC 2015-06-02 08:34:16
    Tagged date : UTC 2015-06-02 08:34:17
    Audio #1
    ID : 2
    Format : AAC
    Format/Info : Advanced Audio Codec
    Format profile : LC
    Codec ID : 40
    Duration : 2h 6mn
    Bit rate mode : Variable
    Bit rate : 105 Kbps
    Maximum bit rate : 199 Kbps
    Channel(s) : 2 channels
    Channel positions : Front: L R
    Sampling rate : 48.0 KHz
    Compression mode : Lossy
    Stream size : 95.5 MiB (4%)
    Title : Russian DUB USSR Stereo
    Language : Russian
    Encoded date : UTC 2015-06-02 07:58:27
    Tagged date : UTC 2015-06-02 08:02:32
    Audio #2
    ID : 3
    Format : AAC
    Format/Info : Advanced Audio Codec
    Format profile : LC
    Codec ID : 40
    Duration : 2h 6mn
    Bit rate mode : Variable
    Bit rate : 99.9 Kbps
    Maximum bit rate : 120 Kbps
    Channel(s) : 2 channels
    Channel positions : Front: L R
    Sampling rate : 48.0 KHz
    Compression mode : Lossy
    Stream size : 90.6 MiB (4%)
    Title : Russian DVO Stereo
    Language : Russian
    Encoded date : UTC 2015-06-02 07:58:27
    Tagged date : UTC 2015-06-02 08:02:28
    Audio #3
    ID : 4
    Format : AAC
    Format/Info : Advanced Audio Codec
    Format profile : LC
    Codec ID : 40
    Duration : 2h 6mn
    Bit rate mode : Variable
    Bit rate : 123 Kbps
    Maximum bit rate : 198 Kbps
    Channel(s) : 2 channels
    Channel positions : Front: L R
    Sampling rate : 48.0 KHz
    Compression mode : Lossy
    Stream size : 111 MiB (5%)
    Title : Russian AVO U.Serbin Stereo
    Language : Russian
    Encoded date : UTC 2015-06-02 07:58:27
    Tagged date : UTC 2015-06-02 08:02:37
    Audio #4
    ID : 5
    Format : AAC
    Format/Info : Advanced Audio Codec
    Format profile : LC
    Codec ID : 40
    Duration : 2h 6mn
    Bit rate mode : Variable
    Bit rate : 132 Kbps
    Maximum bit rate : 209 Kbps
    Channel(s) : 2 channels
    Channel positions : Front: L R
    Sampling rate : 48.0 KHz
    Compression mode : Lossy
    Stream size : 120 MiB (6%)
    Title : English Stereo
    Language : English
    Encoded date : UTC 2015-06-02 07:58:27
    Tagged date : UTC 2015-06-02 08:02:40
    Audio #5
    ID : 6
    Format : AAC
    Format/Info : Advanced Audio Codec
    Format profile : LC
    Codec ID : 40
    Duration : 2h 7mn
    Bit rate mode : Variable
    Bit rate : 128 Kbps
    Maximum bit rate : 229 Kbps
    Channel(s) : 2 channels
    Channel positions : Front: L R
    Sampling rate : 48.0 KHz
    Compression mode : Lossy
    Stream size : 117 MiB (5%)
    Title : English Commentary Stereo
    Language : English
    Encoded date : UTC 2015-06-02 07:58:27
    Tagged date : UTC 2015-06-02 08:02:38
    Text #1
    ID : 7
    Format : Timed Text
    Muxing mode : sbtl
    Codec ID : tx3g
    Duration : 2h 2mn
    Bit rate mode : Variable
    Bit rate : 53 bps
    Stream size : 47.1 KiB (0%)
    Title : English Subtitle
    Language : English
    Encoded date : UTC 2015-06-02 08:29:27
    Tagged date : UTC 2015-06-02 08:29:27
    Text #2
    ID : 8
    Format : Timed Text
    Muxing mode : sbtl
    Codec ID : tx3g
    Duration : 2h 2mn
    Bit rate mode : Variable
    Bit rate : 57 bps
    Stream size : 50.5 KiB (0%)
    Title : English SDH Subtitle
    Language : English
    Encoded date : UTC 2015-06-02 08:29:27
    Tagged date : UTC 2015-06-02 08:29:27
    Text #3
    ID : 9
    Format : Timed Text
    Muxing mode : sbtl
    Codec ID : tx3g
    Duration : 2h 2mn
    Bit rate mode : Variable
    Bit rate : 62 bps
    Stream size : 55.7 KiB (0%)
    Title : English SDH Colored Subtitle
    Language : English
    Encoded date : UTC 2015-06-02 08:29:27
    Tagged date : UTC 2015-06-02 08:29:27
    Menu #1
    00:00:00.000 : 1
    00:04:51.416 : 2
    00:10:32.506 : 3
    00:16:34.827 : 4
    00:19:36.425 : 5
    00:26:15.699 : 6
    00:32:59.060 : 7
    00:37:17.777 : 8
    00:42:06.649 : 9
    00:46:51.058 : 10
    00:54:09.788 : 11
    00:57:52.760 : 12
    01:04:45.506 : 13
    01:09:38.215 : 14
    01:15:06.543 : 15
    01:19:34.686 : 16
    01:25:52.981 : 17
    01:31:10.673 : 18
    01:37:06.237 : 19
    01:42:33.689 : 20
    01:46:27.589 : 21
    01:51:16.294 : 22
    01:57:44.223 : 23
    02:02:55.368 : 24
    Menu #2
    ID : 10
    Codec ID : text
    Duration : 2h 6mn
    Title : Chapter Titles
    Language : English
    Encoded date : UTC 2015-06-02 08:34:11
    Tagged date : UTC 2015-06-02 08:34:11
    00:00:00.000 : 1
    00:04:51.416 : 2
    00:10:32.506 : 3
    00:16:34.827 : 4
    00:19:36.425 : 5
    00:26:15.699 : 6
    00:32:59.060 : 7
    00:37:17.777 : 8
    00:42:06.649 : 9
    00:46:51.058 : 10
    00:54:09.788 : 11
    00:57:52.760 : 12
    01:04:45.506 : 13
    01:09:38.215 : 14
    01:15:06.543 : 15
    01:19:34.686 : 16
    01:25:52.981 : 17
    01:31:10.673 : 18
    01:37:06.237 : 19
    01:42:33.689 : 20
    01:46:27.589 : 21
    01:51:16.294 : 22
    01:57:44.223 : 23
    02:02:55.368 : 24
    Bit rate mode : VBR

    MediaInfo 720p Release

    General
    Complete name : Mississippi Burning (HD).m4v
    Format : MPEG-4
    Codec ID : M4V
    File size : 6.53 GiB
    Duration : 2h 7mn
    Overall bit rate mode : Variable
    Overall bit rate : 7 344 Kbps
    Movie name : Mississippi Burning
    Performer : Alan Parker
    Director : Алан Паркер
    Actor : Джин Хэкмен / Уиллем Дефо / Фрэнсис МакДорманд / Брэд Дуриф / Р. Ли Эрми / Гейлард Сартейн / Стивен Тоболовски / Майкл Рукер / Прюитт Тэйлор Винс / Баджа Джола
    Screenplay by : Крис Джеролмо
    Producer : Роберт Ф. Коулсберри / Фредерик Золло
    Production studio : MGM
    Genre : Drama
    ContentType : Short Film
    Description : Миссисипи 1964г. Убийство трех борцов за права человека поднимает волну массовых беспорядков. Два агента ФБР - Андерсон и Уорд получают задание - расследовать дело и найти преступников...
    Recorded date : UTC 1988-12-09 08:00:00
    Encoded date : UTC 2015-06-02 07:36:19
    Tagged date : UTC 2015-06-02 08:34:26
    Copyright : © ORION PICTURES CORPORATION
    Cover : Yes
    Rating : None
    Title/Sort : Mississippi Burning
    LongDescription : Миссисипи 1964г. Убийство трех борцов за права человека поднимает волну массовых беспорядков. Два агента ФБР - Андерсон и Уорд получают задание - расследовать дело и найти преступников. / Жена местного шерифа, помогающая Андерсону и Уорду в ведении дела, открывает секрет, бросающий тень на главных людей в городе, делая тех участниками кровавого заговора. Но это не останавливает Андерсона, агента с многолетним опытом. Он знает, что иногда для достижения цели необходимо преступить закон, иначе убийцы останутся на свободе.
    HDVideo : Yes
    AppleStoreCatalogID : 834495884
    Vendor : Apple:vendor_id:1988-2970
    ContentRating : mpaa|R|400|
    Video #1
    ID : 1
    Format : AVC
    Format/Info : Advanced Video Codec
    Format profile : High@L3.1
    Format settings, CABAC : No
    Format settings, ReFrames : 3 frames
    Codec ID : avc1
    Codec ID/Info : Advanced Video Coding
    Duration : 2h 6mn
    Source duration : 2h 6mn
    Bit rate : 6 500 Kbps
    Width : 1 280 pixels
    Height : 694 pixels
    Display aspect ratio : 1.85:1
    Frame rate mode : Variable
    Frame rate : 23.976 fps
    Minimum frame rate : 23.974 fps
    Maximum frame rate : 23.981 fps
    Color space : YUV
    Chroma subsampling : 4:2:0
    Bit depth : 8 bits
    Scan type : Progressive
    Bits/(Pixel*Frame) : 0.305
    Stream size : 5.76 GiB (88%)
    Source stream size : 5.76 GiB (88%)
    Title : Main Program
    Writing library : x264 core 125
    Encoding settings : cabac=0 / ref=3 / deblock=1:-3:-2 / analyse=0x3:0x113 / me=umh / subme=9 / psy=1 / psy_rd=0.90:0.25 / mixed_ref=1 / me_range=32 / chroma_me=1 / trellis=0 / 8x8dct=1 / cqm=0 / deadzone=6,6 / fast_pskip=0 / chroma_qp_offset=-2 / threads=6 / lookahead_threads=1 / sliced_threads=0 / nr=0 / decimate=0 / interlaced=0 / bluray_compat=0 / constrained_intra=0 / bframes=3 / b_pyramid=0 / b_adapt=2 / b_bias=0 / direct=1 / weightb=0 / open_gop=0 / weightp=0 / keyint=240 / keyint_min=24 / scenecut=40 / intra_refresh=0 / rc_lookahead=40 / rc=2pass / mbtree=1 / bitrate=6500 / ratetol=1.0 / qcomp=0.80 / qpmin=0 / qpmax=69 / qpstep=4 / cplxblur=20.0 / qblur=0.5 / vbv_maxrate=9500 / vbv_bufsize=9500 / nal_hrd=none / ip_ratio=1.10 / aq=1:0.50
    Language : English
    Encoded date : UTC 2015-06-02 07:36:19
    Tagged date : UTC 2015-06-02 07:43:57
    Color range : Limited
    Color primaries : BT.709
    Transfer characteristics : BT.709
    Matrix coefficients : BT.709
    Video #2
    ID : 11
    Format : JPEG
    Codec ID : jpeg
    Duration : 2h 6mn
    Bit rate mode : Variable
    Bit rate : 1 524 bps
    Width : 640 pixels
    Height : 347 pixels
    Display aspect ratio : 1.85:1
    Frame rate mode : Variable
    Frame rate : 0.003 fps
    Minimum frame rate : 0.002 fps
    Maximum frame rate : 0.006 fps
    Color space : YUV
    Chroma subsampling : 4:2:0
    Bit depth : 8 bits
    Compression mode : Lossy
    Bits/(Pixel*Frame) : 2.287
    Stream size : 1.45 MiB (0%)
    Title : Chapter Images
    Language : English
    Encoded date : UTC 2015-06-02 08:33:49
    Tagged date : UTC 2015-06-02 08:33:49
    Audio #1
    ID : 2
    Format : AAC
    Format/Info : Advanced Audio Codec
    Format profile : LC
    Codec ID : 40
    Duration : 2h 6mn
    Bit rate mode : Variable
    Bit rate : 144 Kbps
    Maximum bit rate : 278 Kbps
    Channel(s) : 2 channels
    Channel positions : Front: L R
    Sampling rate : 48.0 KHz
    Compression mode : Lossy
    Stream size : 133 MiB (2%)
    Title : Russian DUB USSR Stereo
    Language : Russian
    Encoded date : UTC 2015-06-02 07:36:19
    Tagged date : UTC 2015-06-02 07:45:04
    Audio #2
    ID : 3
    Format : AAC
    Format/Info : Advanced Audio Codec
    Format profile : LC
    Codec ID : 40
    Duration : 2h 6mn
    Bit rate mode : Variable
    Bit rate : 139 Kbps
    Maximum bit rate : 185 Kbps
    Channel(s) : 2 channels
    Channel positions : Front: L R
    Sampling rate : 48.0 KHz
    Compression mode : Lossy
    Stream size : 126 MiB (2%)
    Title : Russian DVO Stereo
    Language : Russian
    Encoded date : UTC 2015-06-02 07:36:19
    Tagged date : UTC 2015-06-02 07:45:09
    Audio #3
    ID : 4
    Format : AAC
    Format/Info : Advanced Audio Codec
    Format profile : LC
    Codec ID : 40
    Duration : 2h 6mn
    Bit rate mode : Variable
    Bit rate : 184 Kbps
    Maximum bit rate : 276 Kbps
    Channel(s) : 2 channels
    Channel positions : Front: L R
    Sampling rate : 48.0 KHz
    Compression mode : Lossy
    Stream size : 167 MiB (2%)
    Title : Russian AVO U.Serbin Stereo
    Language : Russian
    Encoded date : UTC 2015-06-02 07:36:19
    Tagged date : UTC 2015-06-02 07:45:07
    Audio #4
    ID : 5
    Format : AAC
    Format/Info : Advanced Audio Codec
    Format profile : LC
    Codec ID : 40
    Duration : 2h 6mn
    Bit rate mode : Variable
    Bit rate : 199 Kbps
    Maximum bit rate : 298 Kbps
    Channel(s) : 2 channels
    Channel positions : Front: L R
    Sampling rate : 48.0 KHz
    Compression mode : Lossy
    Stream size : 180 MiB (3%)
    Title : English Stereo
    Language : English
    Encoded date : UTC 2015-06-02 07:36:19
    Tagged date : UTC 2015-06-02 07:45:11
    Audio #5
    ID : 6
    Format : AAC
    Format/Info : Advanced Audio Codec
    Format profile : LC
    Codec ID : 40
    Duration : 2h 7mn
    Bit rate mode : Variable
    Bit rate : 192 Kbps
    Maximum bit rate : 331 Kbps
    Channel(s) : 2 channels
    Channel positions : Front: L R
    Sampling rate : 48.0 KHz
    Compression mode : Lossy
    Stream size : 177 MiB (3%)
    Title : English Commentary Stereo
    Language : English
    Encoded date : UTC 2015-06-02 07:36:19
    Tagged date : UTC 2015-06-02 07:44:40
    Text #1
    ID : 7
    Format : Timed Text
    Muxing mode : sbtl
    Codec ID : tx3g
    Duration : 2h 2mn
    Bit rate mode : Variable
    Bit rate : 53 bps
    Stream size : 47.1 KiB (0%)
    Title : English Subtitle
    Language : English
    Encoded date : UTC 2015-06-02 08:30:08
    Tagged date : UTC 2015-06-02 08:30:08
    Text #2
    ID : 8
    Format : Timed Text
    Muxing mode : sbtl
    Codec ID : tx3g
    Duration : 2h 2mn
    Bit rate mode : Variable
    Bit rate : 57 bps
    Stream size : 50.5 KiB (0%)
    Title : English SDH Subtitle
    Language : English
    Encoded date : UTC 2015-06-02 08:30:08
    Tagged date : UTC 2015-06-02 08:30:08
    Text #3
    ID : 9
    Format : Timed Text
    Muxing mode : sbtl
    Codec ID : tx3g
    Duration : 2h 2mn
    Bit rate mode : Variable
    Bit rate : 62 bps
    Stream size : 55.7 KiB (0%)
    Title : English SDH Colored Subtitle
    Language : English
    Encoded date : UTC 2015-06-02 08:30:08
    Tagged date : UTC 2015-06-02 08:30:08
    Menu #1
    00:00:00.000 : 1
    00:04:51.416 : 2
    00:10:32.506 : 3
    00:16:34.827 : 4
    00:19:36.425 : 5
    00:26:15.699 : 6
    00:32:59.060 : 7
    00:37:17.777 : 8
    00:42:06.649 : 9
    00:46:51.058 : 10
    00:54:09.788 : 11
    00:57:52.760 : 12
    01:04:45.506 : 13
    01:09:38.215 : 14
    01:15:06.543 : 15
    01:19:34.686 : 16
    01:25:52.981 : 17
    01:31:10.673 : 18
    01:37:06.237 : 19
    01:42:33.689 : 20
    01:46:27.589 : 21
    01:51:16.294 : 22
    01:57:44.223 : 23
    02:02:55.368 : 24
    Menu #2
    ID : 10
    Codec ID : text
    Duration : 2h 6mn
    Title : Chapter Titles
    Language : English
    Encoded date : UTC 2015-06-02 08:33:37
    Tagged date : UTC 2015-06-02 08:33:37
    00:00:00.000 : 1
    00:04:51.416 : 2
    00:10:32.506 : 3
    00:16:34.827 : 4
    00:19:36.425 : 5
    00:26:15.699 : 6
    00:32:59.060 : 7
    00:37:17.777 : 8
    00:42:06.649 : 9
    00:46:51.058 : 10
    00:54:09.788 : 11
    00:57:52.760 : 12
    01:04:45.506 : 13
    01:09:38.215 : 14
    01:15:06.543 : 15
    01:19:34.686 : 16
    01:25:52.981 : 17
    01:31:10.673 : 18
    01:37:06.237 : 19
    01:42:33.689 : 20
    01:46:27.589 : 21
    01:51:16.294 : 22
    01:57:44.223 : 23
    02:02:55.368 : 24
    Bit rate mode : VBR

    x264 лог 480p Release

    HandBrakeCLI -i /Mississippi.Burning.1988.BDRemux.HDCLUB/BDMV/STREAM/00000.m2ts -t 1 -c 1 -o "Mississippi.Burning.480p.eng.m4v" -f mp4 -I -O -w 640 -l 460 --crop 20:20:0:2 --custom-anamorphic --modulus 4 --pixel-aspect 852:640 -e x264 -b 1800 -2 -a none -x cabac=0:ref=2:me=umh:bframes=0:weightp=0:subq=6:8x8dct=0:trellis=0:vbv-maxrate=5000:vbv-bufsize=5000 --verbose=1
    x264 [info]: frame I:2802  Avg QP:19.52  size: 32982  PSNR Mean Y:43.81 U:50.05 V:50.86 Avg:45.06 Global:44.44
    x264 [info]: frame P:179699 Avg QP:22.06  size:  9014  PSNR Mean Y:41.25 U:48.91 V:49.42 Avg:42.53 Global:41.93
    x264 [info]: mb I  I16..4: 22.1%  0.0% 77.9%
    x264 [info]: mb P  I16..4:  0.7%  0.0%  2.8%  P16..4: 51.3% 21.8%  9.4%  0.0%  0.0%    skip:14.1%
    x264 [info]: coded y,uvDC,uvAC intra: 86.6% 69.6% 33.7% inter: 35.0% 19.2% 1.2%
    x264 [info]: i16 v,h,dc,p: 34% 12% 14% 39%
    x264 [info]: i4 v,h,dc,ddl,ddr,vr,hd,vl,hu: 23% 12% 20%  8%  8%  9%  6%  8%  5%
    x264 [info]: i8c dc,h,v,p: 54% 15% 24%  7%
    x264 [info]: ref P L0: 69.7% 30.3%
    x264 [info]: SSIM Mean Y:0.9613599 (14.130db)
    x264 [info]: PSNR Mean Y:41.290 U:48.930 V:49.439 Avg:42.572 Global:41.957 kb/s:1799.44

    x264 лог 720p Release

    HandBrakeCLI -i /Mississippi.Burning.1988.BDRemux.HDCLUB/BDMV/STREAM/00000.m2ts -t 1 -c 1 -o "Mississippi.Burning.720p.eng.m4v" -f mp4 -4 -O -w 1280 -l 694 --crop 20:20:0:2 --modulus 2 -e x264 -b 6500 -2 -a none -x cabac=0:ref=3:me=umh:b-pyramid=none:b-adapt=2:weightb=0:trellis=0:weightp=0:vbv-maxrate=9500:vbv-bufsize=9500:subq=9:merange=32:deblock=-3,-2:qcomp=0.80:qpmin=0:qpmax=69:fast_pskip=0:aq-strength=0.5:no-dct-decimate=1:psy-rd=0.90,0.25:ipratio=1.1:pbratio=1.1:deadzone-inter=6:deadzone-intra=6 --verbose=1
    x264 [info]: frame I:1496  Avg QP:23.49  size: 79081  PSNR Mean Y:42.37 U:49.05 V:49.92 Avg:43.66 Global:43.17
    x264 [info]: frame P:55795 Avg QP:23.72  size: 51177  PSNR Mean Y:42.47 U:50.00 V:50.85 Avg:43.77 Global:43.15
    x264 [info]: frame B:125210 Avg QP:24.85  size: 25611  PSNR Mean Y:41.01 U:49.42 V:50.40 Avg:42.40 Global:41.76
    x264 [info]: consecutive B-frames:  1.7%  6.7% 41.3% 50.3%
    x264 [info]: mb I  I16..4:  7.8% 70.0% 22.2%
    x264 [info]: mb P  I16..4:  1.1% 11.3%  2.7%  P16..4: 49.2% 23.0%  8.2%  0.0%  0.0%    skip: 4.6%
    x264 [info]: mb B  I16..4:  0.1%  2.0%  0.4%  B16..8: 36.4% 10.6%  1.5%  direct:12.4%  skip:36.6%  L0:39.5% L1:39.2% BI:21.3%
    x264 [info]: 8x8 transform intra:75.7% inter:43.7%
    x264 [info]: coded y,uvDC,uvAC intra: 93.0% 54.4% 14.6% inter: 49.2% 11.8% 1.0%
    x264 [info]: i16 v,h,dc,p: 38% 14% 10% 39%
    x264 [info]: i8 v,h,dc,ddl,ddr,vr,hd,vl,hu: 11%  6%  5% 12% 16% 15% 13% 11% 10%
    x264 [info]: i4 v,h,dc,ddl,ddr,vr,hd,vl,hu: 14%  8%  3% 11% 16% 16% 13% 11%  8%
    x264 [info]: i8c dc,h,v,p: 53% 18% 21%  9%
    x264 [info]: ref P L0: 60.1% 24.9% 15.0%
    x264 [info]: ref B L0: 73.8% 26.2%
    x264 [info]: SSIM Mean Y:0.9524689 (13.230db)
    x264 [info]: PSNR Mean Y:41.466 U:49.598 V:50.535 Avg:42.832 Global:42.153 kb/s:6495.60

    Скриншоты 480p Release

    Скриншоты 720p Release

    -

    Релиз подготовлен для просмотра на Apple TV, iPad, iPhone, iPod Touch.
    Для просмотра данного релиза на компьютере с ОС Windows рекомендуется использовать VLC media player
    Скачать .torrent

    Скачать торрент-файл бесплатно и на максимальной скорости!

    Как скачивать? · Что такое торрент? · Рейтинг и ограничения

    !ВНИМАНИЕ!
    Сайт не распространяет и не хранит электронные версии произведений, а занимается лишь лишь предоставлением доступа к создаваемому пользователями каталогу ссылок на торрент-файлы, которые содержат только списки хеш-сумм, убедительная просьба с жалобами обращаться напрямую к пользователю. Файлы для обмена на трекере предоставлены пользователями сайта, и администрация не несёт ответственности за их содержание. Просьба не заливать файлы, защищенные авторскими правами, а также файлы нелегального содержания!


    _________________
    [Профиль] [ЛС]
    Показать сообщения:    
    Ответить на тему

    Текущее время: Сегодня, в 05:59

    Часовой пояс: GMT + 2



    Вы не можете начинать темы
    Вы не можете отвечать на сообщения
    Вы не можете редактировать свои сообщения
    Вы не можете удалять свои сообщения
    Вы не можете голосовать в опросах
    Вы не можете прикреплять файлы к сообщениям
    Вы не можете скачивать файлы