BitTorrentTracker PerecTracker.org
BitTorrentTracker PerecTracker.org
    
Регистрация  ·  Вход
 
 · 
Забыли пароль?

  • Sagan om Karl-Bertil Jonssons julafton / Рождественская история Карла-Бертила Йонссона (Пер Олин / Per Åhlin) [1975, Короткометражный, DVDRip] VO

    Ответить на тему
     
    Автор Сообщение

    rechyn

    Создавать темы 03-Июн-2015 00:30

           

    [Цитировать]

    Рождественская история Карла-Бертила Йонссона / Sagan om Karl-Bertil Jonssons julafton
    Страна: Швеция
    Жанр: Короткометражный
    Продолжительность: 0:24:04
    Год выпуска: 1975
    Перевод: Одноголосый закадровый (Max Nabokov)
    Русские субтитры: нет
    Режиссёр: Пер Олин / Per Åhlin
    Роли озвучивали: Таге Даниэльссон, Пер Андрен, Марианн Стьернквист, Тойво Павло, Аке Фриделль, Кэтрин Вестерлунд
    Описание: «Рассказ о сочельнике Карла-Бертила Йонссона» — это мультипликационная экранизация одноименного рассказа Тага Даниэльссона о современном Робине Гуде, который грабит богатых, чтобы сделать подарки в Сочельник бедным жителям Стокгольма. Мультфильм стал очень популярным в Швеции и передается каждый Сочельник по шведскому и норвежскому национальным телевидениям.
    Доп. информация: Имеется DVD5. Если у кого возникнет желание создать DVD с русской дорожкой, могу предоставить чистый голос.

    Семпл: http://multi-up.com/1051727
    Качество: DVDRip
    Формат: AVI
    Видео: Xvid 720x480 25fps 2046kbps
    Аудио: Dolby AC3 48000Hz stereo 192kbps

    Подробные технические данные

    GeneralComplete name : D:\...\Sagan om Karl-Bertil Jonssons julafton (1975)\Sagan om Karl-Bertil Jonssons julafton.1975.Per Åhlin.Tage Danielsson(Max Nabokov).aviFormat : AVIFormat/Info : Audio Video InterleaveFile size : 371 MiBDuration : 23mn 4sOverall bit rate : 2 249 KbpsWriting application : VirtualDubMod 1.5.10.2 (build 2540/release)Writing library : VirtualDubMod build 2540/release
    VideoID : 0Format : MPEG-4 VisualFormat profile : Advanced Simple@L5Format settings, BVOP : 2Format settings, QPel : NoFormat settings, GMC : No warppointsFormat settings, Matrix : CustomCodec ID : XVIDCodec ID/Hint : XviDDuration : 23mn 4sBit rate : 2 047 KbpsWidth : 720 pixelsHeight : 480 pixelsDisplay aspect ratio : 3:2Frame rate : 25.000 fpsStandard : NTSCColor space : YUVChroma subsampling : 4:2:0Bit depth : 8 bitsScan type : ProgressiveCompression mode : LossyBits/(Pixel*Frame) : 0.237Stream size : 338 MiB (91%)Writing library : XviD 65
    AudioID : 1Format : AC-3Format/Info : Audio Coding 3Mode extension : CM (complete main)Format settings, Endianness : BigCodec ID : 2000Duration : 23mn 4sBit rate mode : ConstantBit rate : 192 KbpsChannel(s) : 2 channelsChannel positions : Front: L RSampling rate : 48.0 KHzCompression mode : LossyStream size : 31.7 MiB (9%)Alignment : Split accross interleavesInterleave, duration : 40 ms (1.00 video frame)Interleave, preload duration : 500 ms

    Скриншоты


    Скачать .torrent

    Скачать торрент-файл бесплатно и на максимальной скорости!

    Как скачивать? · Что такое торрент? · Рейтинг и ограничения

    !ВНИМАНИЕ!
    Сайт не распространяет и не хранит электронные версии произведений, а занимается лишь лишь предоставлением доступа к создаваемому пользователями каталогу ссылок на торрент-файлы, которые содержат только списки хеш-сумм, убедительная просьба с жалобами обращаться напрямую к пользователю. Файлы для обмена на трекере предоставлены пользователями сайта, и администрация не несёт ответственности за их содержание. Просьба не заливать файлы, защищенные авторскими правами, а также файлы нелегального содержания!


    _________________
    [Профиль] [ЛС]
    Показать сообщения:    
    Ответить на тему

    Текущее время: Сегодня, в 01:24

    Часовой пояс: GMT + 2



    Вы не можете начинать темы
    Вы не можете отвечать на сообщения
    Вы не можете редактировать свои сообщения
    Вы не можете удалять свои сообщения
    Вы не можете голосовать в опросах
    Вы не можете прикреплять файлы к сообщениям
    Вы не можете скачивать файлы