BitTorrentTracker PerecTracker.org
BitTorrentTracker PerecTracker.org
    
Регистрация  ·  Вход
 
 · 
Забыли пароль?

  • Слендер / Always Watching: A Marble Hornets Story / The Operator (Джеймс Моран / James Moran) [2015, США, ужасы, WEB-DLRip] Dub (iTunes)

    Ответить на тему
     
    Автор Сообщение

    rechyn

    Создавать темы 03-Июн-2015 00:30

           

    [Цитировать]

    Слендер / Always Watching: A Marble Hornets Story / The Operator
    Страна: США
    Жанр: ужасы
    Год выпуска: 2015
    Продолжительность: 01:27;43-Перевод: Любительский (дублированный), iTunes
    Cубтитры: нет
    Режиссер: Джеймс Моран / James Moran-В ролях: Крис Маркетт, Александра Брекенридж, Джейк Макдорман, Даг Джонс, Майкл Бунин, Александра Холден, Морган Е. Бастин, Блэр Бомар, Рик Отто, Шэшони Холл...-Описание: Съемочная группа, готовящая сюжет про исчезнувшую семью, обнаруживает коробку кассет со свидетельствами появления Слендера — страшного существа, которое можно увидеть только через объектив видеокамеры. Посмотрев пленки, они навлекают на себя ужасное проклятье: их начинает преследовать сам Слендер, от которого не спрятаться и не скрыться.-Сэмпл: http://sendfile.su/1124237


    Качество видео: WEB-DLRip
    Формат видео: AVI
    Видео: XviD, 720х400, 16:9, 25,000 кадров/сек, 950 Кбит/сек
    Аудио: AC-3, 48,0 КГц, 192 Кбит/сек, 2 канала: L R

    MediaInfo

    Формат : AVI
    Формат/Информация : Audio Video Interleave
    Размер файла : 723 Мбайт
    Продолжительность : 1 ч. 27 м.
    Общий поток : 1152 Кбит/сек
    Программа кодирования : VirtualDubMod 1.5.10.2 (build 2540/release)
    Библиотека кодирования : VirtualDubMod build 2540/release
    Видео
    Идентификатор : 0
    Формат : MPEG-4 Visual
    Профиль формата : Advanced Simple@L5
    Параметр BVOP формата : 1
    Параметр QPel формата : Нет
    Параметр GMC формата : Без точки перехода
    Параметр матрицы формата : Default (MPEG)
    Идентификатор кодека : XVID
    Идентификатор кодека/Подсказка : XviD
    Продолжительность : 1 ч. 27 м.
    Битрейт : 950 Кбит/сек
    Ширина : 720 пикселей
    Высота : 400 пикселей
    Соотношение сторон : 16:9
    Частота кадров : 25,000 кадров/сек
    Цветовое пространство : YUV
    Субдискретизация насыщенности : 4:2:0
    Битовая глубина : 8 бит
    Тип развёртки : Прогрессивная
    Метод сжатия : С потерями
    Бит/(Пиксели*Кадры) : 0.132
    Размер потока : 596 Мбайт (82%)
    Библиотека кодирования : XviD 1.2.1 (UTC 2008-12-04)
    Аудио
    Идентификатор : 1
    Формат : AC-3
    Формат/Информация : Audio Coding 3
    Расширение режима : CM (complete main)
    Параметр Endianness формата : Big
    Идентификатор кодека : 2000
    Продолжительность : 1 ч. 27 м.
    Вид битрейта : Постоянный
    Битрейт : 192 Кбит/сек
    Каналы : 2 канала
    Расположение каналов : Front: L R
    Частота : 48,0 КГц
    Метод сжатия : С потерями
    Размер потока : 120 Мбайт (17%)
    Выравнивание : Разделение по промежуткам
    Продолжительность промежутка : 40 мс. (1,00 видеокадр)
    Время предзагрузки промежутка : 500 мс.

    Скриншот c названием фильма

    Скриншоты






    Скачать .torrent

    Скачать торрент-файл бесплатно и на максимальной скорости!

    Как скачивать? · Что такое торрент? · Рейтинг и ограничения

    !ВНИМАНИЕ!
    Сайт не распространяет и не хранит электронные версии произведений, а занимается лишь лишь предоставлением доступа к создаваемому пользователями каталогу ссылок на торрент-файлы, которые содержат только списки хеш-сумм, убедительная просьба с жалобами обращаться напрямую к пользователю. Файлы для обмена на трекере предоставлены пользователями сайта, и администрация не несёт ответственности за их содержание. Просьба не заливать файлы, защищенные авторскими правами, а также файлы нелегального содержания!


    _________________
    [Профиль] [ЛС]
    Показать сообщения:    
    Ответить на тему

    Текущее время: Сегодня, в 18:13

    Часовой пояс: GMT + 2



    Вы не можете начинать темы
    Вы не можете отвечать на сообщения
    Вы не можете редактировать свои сообщения
    Вы не можете удалять свои сообщения
    Вы не можете голосовать в опросах
    Вы не можете прикреплять файлы к сообщениям
    Вы не можете скачивать файлы