BitTorrentTracker PerecTracker.org
BitTorrentTracker PerecTracker.org
    
Регистрация  ·  Вход
 
 · 
Забыли пароль?

  • Тень над Месой / Shadow on the Mesa (Дэвид С. Касс ст. / David S. Cass Sr.) [2013, США, Вестерн, HDTVRip] MVO

    Ответить на тему
     
    Автор Сообщение

    Light

    Создавать темы 03-Июн-2015 00:30

           

    [Цитировать]

    Тень над Месой / Shadow on the Mesa
    Страна: США
    Жанр: Вестерн
    Год выпуска: 2013
    Продолжительность: 01:23:24
    Перевод: Профессиональный (многоголосый закадровый)
    Cубтитры: нет
    Режиссер: Дэвид С. Касс ст. / David S. Cass Sr.
    В ролях: Дэвид С. Касс ст. (Lone Rider, Prairie Fever, Avenging Angel, Desolation Canyon, The Trail to Hope Rose, Johnson County War)
    Актеры: Уэс Браун, Кевин Сорбо, Гэйл О’Грэйди, Шеннон Лучио, Дэйв Флорек, Стефен Бриджуотер, Мика Алберти, Грег Эвиган, Шэйн Джонсон, Эндрю Лоуренс и др.
    Описание: Веса Роуленса считают лучшим наемным убийцей на Диком Западе. Однажды, его уклад жизни меняется, когда он узнает, что его мать мертва, а виновный в её смерти не понес наказание. Вес думает, что его давно пропавший отец может быть как-то причастен к этому, и отправляется на его поиски. Вес нашел отца, но увидел, что тот лишь фермер, вовлечённый в территориальное сражение с жадным землевладельцем. Вес решает помочь отцу...
    Сэмпл: https://yadi.sk/i/NFp4JIBhh2ia2
    Доп. информация: За предоставленный рип благодарим Ledy_X
    "Спасибы" просьба ПИСАТЬ в теме, тем самым вы продлеваете жизнь раздаче.
    Релиз
    Качество видео: HDTVRip [Исходник 1080i]
    Формат видео: AVI
    Видео: 720x400 (1.80:1), 25 fps, XviD build 50 ~2144 kbps avg, 0.30 bit/pixel
    Аудио: 48 kHz, AC3 Dolby Digital, 2/0 (L,R) ch, ~192 kbps

    MediaInfo

    Тень над Месой - Shadow on the Mesa [Rip by Ledy_X].avi
    Format : AVI
    Format/Info : Audio Video Interleave
    File size : 1.37 GiB
    Duration : 1h 23mn
    Overall bit rate : 2 346 Kbps
    Movie name : Тень над Месой - Shadow on the Mesa [Rip by Ledy_X]
    Director : Rip by Ledy_X
    Writing application : VirtualDubMod 1.5.10.3 | www.virtualdub-fr.org || (build 2550/release)
    Copyright : Edich2
    Comment : RuTracker.org
    Video
    ID : 0
    Format : MPEG-4 Visual
    Format profile : Advanced Simple@L5
    Format settings, BVOP : 1
    Format settings, QPel : No
    Format settings, GMC : No warppoints
    Format settings, Matrix : Default (MPEG)
    Codec ID : XVID
    Codec ID/Hint : XviD
    Duration : 1h 23mn
    Bit rate : 2 144 Kbps
    Width : 720 pixels
    Height : 400 pixels
    Display aspect ratio : 16:9
    Frame rate : 25.000 fps
    Color space : YUV
    Chroma subsampling : 4:2:0
    Bit depth : 8 bits
    Scan type : Progressive
    Compression mode : Lossy
    Bits/(Pixel*Frame) : 0.298
    Stream size : 1.25 GiB (91%)
    Writing library : XviD 1.2.1 (UTC 2008-12-04)
    Audio
    ID : 1
    Format : AC-3
    Format/Info : Audio Coding 3
    Mode extension : CM (complete main)
    Format settings, Endianness : Big
    Codec ID : 2000
    Duration : 1h 23mn
    Bit rate mode : Constant
    Bit rate : 192 Kbps
    Channel(s) : 2 channels
    Channel positions : Front: L R
    Sampling rate : 48.0 KHz
    Bit depth : 16 bits
    Compression mode : Lossy
    Stream size : 115 MiB (8%)
    Alignment : Split accross interleaves
    Interleave, duration : 40 ms (1.00 video frame)
    Interleave, preload duration : 500 ms

    Скриншоты


    Скачать .torrent

    Скачать торрент-файл бесплатно и на максимальной скорости!

    Как скачивать? · Что такое торрент? · Рейтинг и ограничения

    !ВНИМАНИЕ!
    Сайт не распространяет и не хранит электронные версии произведений, а занимается лишь лишь предоставлением доступа к создаваемому пользователями каталогу ссылок на торрент-файлы, которые содержат только списки хеш-сумм, убедительная просьба с жалобами обращаться напрямую к пользователю. Файлы для обмена на трекере предоставлены пользователями сайта, и администрация не несёт ответственности за их содержание. Просьба не заливать файлы, защищенные авторскими правами, а также файлы нелегального содержания!


    _________________
    [Профиль] [ЛС]
    Показать сообщения:    
    Ответить на тему

    Текущее время: Сегодня, в 23:11

    Часовой пояс: GMT + 2



    Вы не можете начинать темы
    Вы не можете отвечать на сообщения
    Вы не можете редактировать свои сообщения
    Вы не можете удалять свои сообщения
    Вы не можете голосовать в опросах
    Вы не можете прикреплять файлы к сообщениям
    Вы не можете скачивать файлы