BitTorrentTracker PerecTracker.org
BitTorrentTracker PerecTracker.org
    
Регистрация  ·  Вход
 
 · 
Забыли пароль?

  • Убийцы фазана / The Absent One / Fasandræberne (Миккель Нёргор / Mikkel Nørgaard) [2014 г., Дания, Германия, Швеция, детектив, триллер, криминал, BDRip] AVO (Алексеев) + Original (Dan) + Subs (Rus, Eng, Dan)

    Ответить на тему
     
    Автор Сообщение

    Light

    Создавать темы 03-Июн-2015 00:30

           

    [Цитировать]

    --Убийцы фазана / Fasandræberne--Страна: Дания, Германия, Швеция
    Жанр: детектив, триллер, криминал
    Год выхода: 2014
    Продолжительность: 01:59:41
    Перевод: авторский (Антон Алексеев)
    Субтитры: русские, английские, датские
    Оригинальная аудиодорожка: датская
    Режиссер: Миккель Нёргор / Mikkel Nørgaard
    В ролях: Николай Ли Каас, Фарес Фарес, Даника Куркик, Йохан Филип Асбек, Давид Денсик, Сара-Софи Бусснина, Сёрен Пильмарк, Николай Грот, Оле Дюпон, Камилла Готтлиб
    О фильме: В 1994 году двое детей близнецов были найдены зверски убитыми в летнем загородном доме. Ряд фактов указывал на причастность к делу группы молодых студентов, но расследование было прекращено, после того как местный отшельник признал себя виновным в этом инциденте.
    20 лет спустя это дело попадает на стол Карлса Мёрка, который начинает подозревать, что в нем что-то не так…

    Релиз от -
    Автор: Gellard
    Сэмпл: скачать
    Качество: BDRip (источник: ilgizik01 / Blu-Ray Remux / 1080p)
    Формат: AVI
    Видео: 720x304 (2.37:1), 24 fps, XviD build 65 ~1932 kbps avg, 0.37 bit/pixel
    Аудио #1: (AVO.ALEKSEEV) 48 kHz, AC3 Dolby Digital, 3/2 (L,C,R,l,r) + LFE ch, 384.00 kbps avg
    Аудио #2: (DAN) 48 kHz, AC3 Dolby Digital, 3/2 (L,C,R,l,r) + LFE ch, 384.00 kbps avg
    Формат субтитров: softsub (SRT)-
    -

    Скриншоты

    MediaInfo

    General
    Complete name                            : Ubijcy.fazana.2014.DUAL.BDRip.XviD.AC3.-HQCLUB.avi
    Format                                   : AVI
    Format/Info                              : Audio Video Interleave
    Format profile                           : OpenDML
    File size                                : 2.18 GiB
    Duration                                 : 1h 59mn
    Overall bit rate                         : 2 610 Kbps
    Movie name                               : Убийцы фазана / The Absent One / Fasandreberne (2014) BDRip
    Director                                 : Gellard
    Genre                                    : детектив, триллер, криминал
    Writing application                      : VirtualDubMod 1.5.10.2 (build 2542/release)
    Copyright                                : HQCLUB
    Comment                                  : 02.06.2015
    Video
    ID                                       : 0
    Format                                   : MPEG-4 Visual
    Format profile                           : Advanced Simple@L5
    Format settings, BVOP                    : 1
    Format settings, QPel                    : No
    Format settings, GMC                     : No warppoints
    Format settings, Matrix                  : Custom
    Codec ID                                 : XVID
    Codec ID/Hint                            : XviD
    Duration                                 : 1h 59mn
    Bit rate                                 : 1 824 Kbps
    Width                                    : 720 pixels
    Height                                   : 304 pixels
    Display aspect ratio                     : 2.35:1
    Frame rate                               : 24.000 fps
    Color space                              : YUV
    Chroma subsampling                       : 4:2:0
    Bit depth                                : 8 bits
    Scan type                                : Progressive
    Compression mode                         : Lossy
    Bits/(Pixel*Frame)                       : 0.347
    Stream size                              : 1.52 GiB (70%)
    Writing library                          : XviD 65
    Audio #1
    ID                                       : 1
    Format                                   : AC-3
    Format/Info                              : Audio Coding 3
    Mode extension                           : CM (complete main)
    Format settings, Endianness              : Big
    Codec ID                                 : 2000
    Duration                                 : 1h 59mn
    Bit rate mode                            : Constant
    Bit rate                                 : 384 Kbps
    Channel count                            : 6 channels
    Channel positions                        : Front: L C R, Side: L R, LFE
    Sampling rate                            : 48.0 KHz
    Bit depth                                : 16 bits
    Compression mode                         : Lossy
    Stream size                              : 329 MiB (15%)
    Alignment                                : Split accross interleaves
    Interleave, duration                     : 42 ms (1.00 video frame)
    Interleave, preload duration             : 500 ms
    Audio #2
    ID                                       : 2
    Format                                   : AC-3
    Format/Info                              : Audio Coding 3
    Mode extension                           : CM (complete main)
    Format settings, Endianness              : Big
    Codec ID                                 : 2000
    Duration                                 : 1h 59mn
    Bit rate mode                            : Constant
    Bit rate                                 : 384 Kbps
    Channel count                            : 6 channels
    Channel positions                        : Front: L C R, Side: L R, LFE
    Sampling rate                            : 48.0 KHz
    Bit depth                                : 16 bits
    Compression mode                         : Lossy
    Stream size                              : 329 MiB (15%)
    Alignment                                : Split accross interleaves
    Interleave, duration                     : 42 ms (1.00 video frame)
    Interleave, preload duration             : 500 ms
    Скачать .torrent

    Скачать торрент-файл бесплатно и на максимальной скорости!

    Как скачивать? · Что такое торрент? · Рейтинг и ограничения

    !ВНИМАНИЕ!
    Сайт не распространяет и не хранит электронные версии произведений, а занимается лишь лишь предоставлением доступа к создаваемому пользователями каталогу ссылок на торрент-файлы, которые содержат только списки хеш-сумм, убедительная просьба с жалобами обращаться напрямую к пользователю. Файлы для обмена на трекере предоставлены пользователями сайта, и администрация не несёт ответственности за их содержание. Просьба не заливать файлы, защищенные авторскими правами, а также файлы нелегального содержания!


    _________________
    [Профиль] [ЛС]
    Показать сообщения:    
    Ответить на тему

    Текущее время: Сегодня, в 18:29

    Часовой пояс: GMT + 2



    Вы не можете начинать темы
    Вы не можете отвечать на сообщения
    Вы не можете редактировать свои сообщения
    Вы не можете удалять свои сообщения
    Вы не можете голосовать в опросах
    Вы не можете прикреплять файлы к сообщениям
    Вы не можете скачивать файлы