BitTorrentTracker PerecTracker.org
BitTorrentTracker PerecTracker.org
    
Регистрация  ·  Вход
 
 · 
Забыли пароль?

  • Развод и помолвка / Divorce et fiancailles (Оливье Перей / Olivier Peray) [2011, Франция, комедийная мелодрама, DVB] Original (Fre) + Sub (Rus)

    Ответить на тему
     
    Автор Сообщение

    Light

    Создавать темы 03-Июн-2015 00:30

           

    [Цитировать]

    Развод и помолвка
    Divorce et fiançailles-Страна: Франция
    Жанр: комедийная мелодрама
    Год выпуска: 2011
    Продолжительность: 01:31:00Перевод: Субтитры (русский перевод И. Рыбкиной, Éclair Group)
    Cубтитры: русские, английские, французские, немецкие, нидерландские, румынские
    Оригинальная аудиодорожка: французский
    Режиссер: Оливье Перей / Olivier Péray
    В ролях: Ариан Аскарид / Ariane Ascaride (Sido), Мишель Омон / Michel Aumont (Georges), Жак Списсье / Jacques Spiesser (Francis), Жан-Франсуа Стевенен / Jean-François Stévenin (Jo Marengo), Анник Бланшето / Annick Blancheteau (Odile), Франсуаз Бертен / Françoise Bertin (Bernadette)
    Описание: Эта легкая французская комедия затрагивает непростую тему человеческих отношений: стремление к независимости, с одной стороны, и боязнь одиночества, с другой. Исследование возрастных изменений во взаимоотношениях между людьми присуще не только французскому кинематографу, но именно французское кино делает это столь непосредственно и грациозно.
    60-летняя Сидо недавно развелась: после выхода на пенсию ее муж решил наслаждаться своей новой жизнью без нее. Сидо возвращается в свой родной город, поближе к родителям и школьным друзьям, которые намерены в кратчайшие сроки найти Сидо нового мужчину.
    Доп. информация: Hot Bird (13.0°E) TV5MONDE Europe DVB-S

    Качество видео: DVB
    Формат видео: DVD Video
    Видео: MPEG Video 2, 720x576@1024x576 (16:9), 25 fps, ~3213 kbps avg, 0.310 bit/pixel
    Аудио: MPEG Audio 2, 2 ch, 48 kHz, ~192.00 kbps avg - французский
    Формат субтитров: prerendered (IDX+SUB)

    DVDInfo, MediaInfo

    Title: [apreder]Divorce_et_fiancailles(2011)DVBSize: 2.21 Gb ( 2 315 438,00 KBytes ) - DVD-5Enabled regions: 1, 2, 3, 4, 5, 6, 7, 8
    VTS_01 : Play Length: 01:31:00 Video: PAL 16:9 (720x576) VBR, Auto Letterboxed Audio: Francais (MPEG1, 2 ch) Subtitles: Russian English Francais Deutsch Nederlands Romanian
    ОбщееПолное имя : H:\My Torrents\[apreder]Divorce_et_fiancailles(2011)DVB\VIDEO_TS\VTS_01_2.VOBФормат : MPEG-PSРазмер файла : 1024 МбайтПродолжительность : 41 м.Режим общего битрейта : ПеременныйОбщий поток : 3474 Кбит/сек
    ВидеоИдентификатор : 224 (0xE0)Формат : MPEG VideoВерсия формата : Version 2Профиль формата : Main@MainПараметр BVOP формата : ДаПараметр матрицы формата : ВыборочнаяПараметр GOP формата : VariableFormat_Settings_PictureStructure : FrameПродолжительность : 41 м.Вид битрейта : ПеременныйБитрейт : 3213 Кбит/секШирина : 720 пикселейВысота : 576 пикселейСоотношение сторон : 16:9Частота кадров : 25,000 кадров/секСтандарт вещания : PALЦветовое пространство : YUVСубдискретизация насыщенности : 4:2:0Битовая глубина : 8 битТип развёртки : ЧересстрочнаяПорядок развёртки : Верхнее поле первоеМетод сжатия : С потерямиБит/(Пиксели*Кадры) : 0.310Временной код первого кадра : 00:41:10:23Оригинал временного кода : Group of pictures headerРазмер потока : 947 Мбайт (92%)
    АудиоИдентификатор : 192 (0xC0)Формат : MPEG AudioВерсия формата : Version 1Профиль формата : Layer 2Режим : Joint stereoРасширение режима : Intensity Stereo + MS StereoПродолжительность : 41 м.Вид битрейта : ПостоянныйБитрейт : 192 Кбит/секКаналы : 2 каналаЧастота : 48,0 КГцМетод сжатия : С потерямиЗадержка видео : -648 мс.Размер потока : 56,6 Мбайт (6%)
    Текст #1Идентификатор : 189 (0xBD)-32 (0x20)Формат : RLEФормат/Информация : Run-length encodingРежим смешивания : DVD-Video
    Текст #2Идентификатор : 189 (0xBD)-33 (0x21)Формат : RLEФормат/Информация : Run-length encodingРежим смешивания : DVD-Video
    Текст #3Идентификатор : 189 (0xBD)-34 (0x22)Формат : RLEФормат/Информация : Run-length encodingРежим смешивания : DVD-Video
    Текст #4Идентификатор : 189 (0xBD)-35 (0x23)Формат : RLEФормат/Информация : Run-length encodingРежим смешивания : DVD-Video
    Текст #5Идентификатор : 189 (0xBD)-36 (0x24)Формат : RLEФормат/Информация : Run-length encodingРежим смешивания : DVD-Video
    Текст #6Идентификатор : 189 (0xBD)-37 (0x25)Формат : RLEФормат/Информация : Run-length encodingРежим смешивания : DVD-Video

    Скриншот c названием фильма

    Скриншоты

    Резервные скриншоты


    -[546]
    Скачать .torrent

    Скачать торрент-файл бесплатно и на максимальной скорости!

    Как скачивать? · Что такое торрент? · Рейтинг и ограничения

    !ВНИМАНИЕ!
    Сайт не распространяет и не хранит электронные версии произведений, а занимается лишь лишь предоставлением доступа к создаваемому пользователями каталогу ссылок на торрент-файлы, которые содержат только списки хеш-сумм, убедительная просьба с жалобами обращаться напрямую к пользователю. Файлы для обмена на трекере предоставлены пользователями сайта, и администрация не несёт ответственности за их содержание. Просьба не заливать файлы, защищенные авторскими правами, а также файлы нелегального содержания!


    _________________
    [Профиль] [ЛС]
    Показать сообщения:    
    Ответить на тему

    Текущее время: Сегодня, в 00:05

    Часовой пояс: GMT + 2



    Вы не можете начинать темы
    Вы не можете отвечать на сообщения
    Вы не можете редактировать свои сообщения
    Вы не можете удалять свои сообщения
    Вы не можете голосовать в опросах
    Вы не можете прикреплять файлы к сообщениям
    Вы не можете скачивать файлы