BitTorrentTracker PerecTracker.org
BitTorrentTracker PerecTracker.org
    
Регистрация  ·  Вход
 
 · 
Забыли пароль?

  • Охота на пиранью (Андрей Кавун) [2006, Боевик. триллер, криминал, SATRip]

    Ответить на тему
     
    Автор Сообщение

    rechyn

    Создавать темы 02-Июн-2015 16:06

           

    [Цитировать]

    Охота на пиранью / ТВ-версия
    Жанр: Боевик. триллер, криминал
    Год выпуска: 2006
    Продолжительность: 02:48:12
    Режиссёр: Андрей Кавун
    В ролях: Владимир Машков, Евгений Миронов, Андрей Мерзликин, Светлана Антонова, Сергей Гармаш, Михаил Ефремов, Александр Новин, Виктория Исакова, Анна Банщикова, Алексей Горбунов

    Описание: Под видом совместного отпуска агент спецподразделения «Пираньи» Кирилл Мазур с коллегой Ольгой направляются в сибирскую тайгу с заданием ликвидировать лабораторию химического оружия, затопленную на дне озера на территории, которая вскоре должна отойти соседнему Китаю. Неожиданно они оказываются в мире, где законы цивилизации забыты, а смертоносное оружие захвачено бандитами под предводительством нового «хозяина тайги» Прохора, который на досуге развлекается настоящей охотой на людей. Мазур не ожидал, что ему придется сменить привычный автомат на самодельный костяной нож, и спасать себя и напарницу, вместо того, чтобы спасать мир. Но и охотники не догадывались, что для них это сафари в северных лесах окажется не менее опасным, чем для живых мишеней.
    Доп. информация: Сценарий: Дмитрий Зверьков, Александр Бушков
    Продюсер: Валерий Тодоровский
    P.S. Все серии данного фильма целиком одним файлом (full version)

    Сэмпл: http://sendfile.su/1124267
    Качество видео: SATRip
    Формат видео: AVI
    Видео: XviD MPEG-4, 640x304 (2.11:1), 25 fps, 1552 kbps avg
    Аудио: Русский, Microsoft MPEG, 48 kHz, 192.00 kbps avg, 2 ch

    MediaInfo

    D:\Мои документы\Моё видео\Фильмы\Ohota_na_piranju_full_version.avi
    General
    Complete name : D:\Мои документы\Моё видео\Фильмы\Ohota_na_piranju_full_version.avi
    Format : AVI
    Format/Info : Audio Video Interleave
    Format profile : OpenDML
    File size : 2.06 GiB
    Duration : 2h 48mn
    Overall bit rate : 1 752 Kbps
    Writing library : VirtualDub-MPEG2 build 24600/release
    Video #0
    ID : 0
    Format : MPEG-4 Visual
    Format profile : Advanced Simple@L5
    Format settings, BVOP : Yes
    Format settings, QPel : No
    Format settings, GMC : No warppoints
    Format settings, Matrix : Default (H.263)
    Muxing mode : Packed bitstream
    Codec ID : XVID
    Codec ID/Hint : XviD
    Duration : 2h 48mn
    Bit rate : 1 547 Kbps
    Width : 640 pixels
    Height : 304 pixels
    Display aspect ratio : 2.2:1
    Frame rate : 25.000 fps
    Color space : YUV
    Chroma subsampling : 4:2:0
    Bit depth : 8 bits
    Scan type : Progressive
    Compression mode : Lossy
    Bits/(Pixel*Frame) : 0.318
    Stream size : 1.82 GiB (88%)
    Writing library : XviD 1.1.2 (UTC 2006-11-01)
    Audio #1
    ID : 1
    Format : MPEG Audio
    Format version : Version 1
    Format profile : Layer 2
    Codec ID : 50
    Duration : 2h 48mn
    Bit rate mode : Constant
    Bit rate : 192 Kbps
    Channel(s) : 2 channels
    Sampling rate : 48.0 KHz
    Compression mode : Lossy
    Stream size : 231 MiB (11%)
    Alignment : Aligned on interleaves
    Interleave, duration : 40 ms (1.00 video frame)
    Interleave, preload duration : 504 ms

    Скриншот c названием фильма

    Скриншоты









    Скачать .torrent

    Скачать торрент-файл бесплатно и на максимальной скорости!

    Как скачивать? · Что такое торрент? · Рейтинг и ограничения

    !ВНИМАНИЕ!
    Сайт не распространяет и не хранит электронные версии произведений, а занимается лишь лишь предоставлением доступа к создаваемому пользователями каталогу ссылок на торрент-файлы, которые содержат только списки хеш-сумм, убедительная просьба с жалобами обращаться напрямую к пользователю. Файлы для обмена на трекере предоставлены пользователями сайта, и администрация не несёт ответственности за их содержание. Просьба не заливать файлы, защищенные авторскими правами, а также файлы нелегального содержания!


    _________________
    [Профиль] [ЛС]
    Показать сообщения:    
    Ответить на тему

    Текущее время: Сегодня, в 00:15

    Часовой пояс: GMT + 2



    Вы не можете начинать темы
    Вы не можете отвечать на сообщения
    Вы не можете редактировать свои сообщения
    Вы не можете удалять свои сообщения
    Вы не можете голосовать в опросах
    Вы не можете прикреплять файлы к сообщениям
    Вы не можете скачивать файлы