BitTorrentTracker PerecTracker.org
BitTorrentTracker PerecTracker.org
    
Регистрация  ·  Вход
 
 · 
Забыли пароль?

  • Адвокат / Убийство на Монастырских прудах (Искандер Хамраев) [1990, криминальная драма, SATRip-AVC]

    Ответить на тему
     
    Автор Сообщение

    Light

    Создавать темы 02-Июн-2015 03:30

           

    [Цитировать]

    Адвокат / Убийство на Монастырских прудах (3 серии)
    Жанр: криминальная драма
    Год выпуска: 1990
    Продолжительность: 01:07:10 + 01:11:24 + 01:03:14
    Субтитры: нет
    Режиссёр: Искандер Хамраев
    В ролях: Андрей Ташков, Юозас Киселюс, Владимир Меньшов, Михаил Глузский, Майя Булгакова, Виктор Павлов, Денис Сердюков, Ян Пузыревский, Вера Лапшова, Александр Семенов, Даниил Лапигин, Валерий Ивченко, Эрнст Романов, Олег Корчиков, Ольга Агеева, Леонард Варфоломеев, Александр Белина, Алексей Миронов, Вадим Яковлев, Сергей Лосев, Валентина Ананьина, Тамара Тимофеева, Геннадий Нилов, Валентина Пугачёва, Борис Аракелов, Георгий Тейх, Николай Крюков, Эвелина Блёданс
    Описание: В провинциальном городке совершается тяжкое преступление. Власти города оказывают давление на следствие и суд, чтобы любой ценой снять напряжение. Под раздачу попадают первые попавшиеся, невиновные люди...
    Острейшая криминальная драма, вскрывающая порочность еще советской правоохранительной системы. Прошло 15 лет, а практически ничего не изменилось, только тогда была "честь и совесть" - компартия, у которой простой гражданин мог найти правду, а сейчас нет ни чести ни совести. См. "Левиофан".
    Семпл: https://www.sendspace.com/file/w14xqq
    источник http://perectracker.org/viewtopic.php?t=4974742
    Качество видео: SATRip-AVC
    Формат видео: MKV
    Видео: 720х574@768х574 (1.33:1), AVC (H.264), 25 fps, 1303...1396 kbps avg, 0.126 bit/pixel
    Аудио: 48 KHz, MP2, 2 ch, 192 Kbps

    MediaInfo

    Общее
    Уникальный идентификатор : 179210076122212545664290724433637718342 (0x86D29AEDFDEE7DF58D100A4D0480B946)
    Полное имя : D:\КИНО\Адвокат\1.mkv
    Формат : Matroska
    Версия формата : Version 4 / Version 2
    Размер файла : 719 Мбайт
    Продолжительность : 1 ч. 7 м.
    Общий поток : 1497 Кбит/сек
    Дата кодирования : UTC 2015-05-22 18:02:48
    Программа кодирования : mkvmerge v7.7.0 ('Six Voices') 32bit built on Feb 28 2015 23:23:00
    Библиотека кодирования : libebml v1.3.1 + libmatroska v1.4.2
    _STATISTICS_WRITING_APP : mkvmerge v7.7.0 ('Six Voices') 32bit built on Feb 28 2015 23:23:00
    _STATISTICS_WRITING_DATE_UTC : 2015-05-22 18:02:48
    _STATISTICS_TAGS : BPS DURATION NUMBER_OF_FRAMES NUMBER_OF_BYTES
    DURATION : 01:07:10.272000000
    NUMBER_OF_FRAMES : 167928
    NUMBER_OF_BYTES : 96726528
    Видео
    Идентификатор : 1
    Формат : AVC
    Формат/Информация : Advanced Video Codec
    Профиль формата : High@L4.1
    Параметр CABAC формата : Да
    Параметр ReFrames формата : 8 кадров
    Идентификатор кодека : V_MPEG4/ISO/AVC
    Продолжительность : 1 ч. 7 м.
    Битрейт : 1303 Кбит/сек
    Ширина : 720 пикселей
    Высота : 574 пикселя
    Соотношение сторон : 4:3
    Режим частоты кадров : Постоянный
    Частота кадров : 25,000 кадров/сек
    Цветовое пространство : YUV
    Субдискретизация насыщенности : 4:2:0
    Битовая глубина : 8 бит
    Тип развёртки : Прогрессивная
    Бит/(Пиксели*Кадры) : 0.126
    Размер потока : 613 Мбайт (85%)
    Библиотека кодирования : x264 core 146 r2538 121396c
    Настройки программы : cabac=1 / ref=8 / deblock=1:-2:-1 / analyse=0x3:0x133 / me=umh / subme=9 / psy=1 / psy_rd=1.00:0.00 / mixed_ref=1 / me_range=24 / chroma_me=1 / trellis=2 / 8x8dct=1 / cqm=0 / deadzone=21,11 / fast_pskip=0 / chroma_qp_offset=-2 / threads=3 / lookahead_threads=1 / sliced_threads=0 / nr=0 / decimate=1 / interlaced=0 / bluray_compat=0 / constrained_intra=0 / bframes=8 / b_pyramid=2 / b_adapt=2 / b_bias=0 / direct=3 / weightb=1 / open_gop=0 / weightp=2 / keyint=250 / keyint_min=25 / scenecut=40 / intra_refresh=0 / rc_lookahead=60 / rc=2pass / mbtree=1 / bitrate=1303 / ratetol=1.0 / qcomp=0.60 / qpmin=10 / qpmax=51 / qpstep=4 / cplxblur=20.0 / qblur=0.5 / vbv_maxrate=50000 / vbv_bufsize=50000 / nal_hrd=none / filler=0 / ip_ratio=1.40 / aq=1:1.00
    Default : Да
    Forced : Нет
    Аудио
    Идентификатор : 2
    Формат : MPEG Audio
    Версия формата : Version 1
    Профиль формата : Layer 2
    Идентификатор кодека : A_MPEG/L2
    Идентификатор кодека/Подсказка : MP2
    Продолжительность : 1 ч. 7 м.
    Вид битрейта : Постоянный
    Битрейт : 192 Кбит/сек
    Каналы : 2 канала
    Частота : 48,0 КГц
    Метод сжатия : С потерями
    Задержка видео : 7 мс.
    Размер потока : 92,2 Мбайт (13%)
    Default : Да
    Forced : Нет
    Общее
    Уникальный идентификатор : 179581040562361886153552221159250251485 (0x871A0CE37F349D4DB84801B0D414CEDD)
    Полное имя : D:\КИНО\Адвокат\2.mkv
    Формат : Matroska
    Версия формата : Version 4 / Version 2
    Размер файла : 794 Мбайт
    Продолжительность : 1 ч. 11 м.
    Общий поток : 1554 Кбит/сек
    Дата кодирования : UTC 2015-05-22 10:53:11
    Программа кодирования : mkvmerge v7.7.0 ('Six Voices') 32bit built on Feb 28 2015 23:23:00
    Библиотека кодирования : libebml v1.3.1 + libmatroska v1.4.2
    _STATISTICS_WRITING_APP : mkvmerge v7.7.0 ('Six Voices') 32bit built on Feb 28 2015 23:23:00
    _STATISTICS_WRITING_DATE_UTC : 2015-05-22 10:53:11
    _STATISTICS_TAGS : BPS DURATION NUMBER_OF_FRAMES NUMBER_OF_BYTES
    DURATION : 01:11:23.832000000
    NUMBER_OF_FRAMES : 178493
    NUMBER_OF_BYTES : 102811968
    Видео
    Идентификатор : 1
    Формат : AVC
    Формат/Информация : Advanced Video Codec
    Профиль формата : High@L4.1
    Параметр CABAC формата : Да
    Параметр ReFrames формата : 8 кадров
    Идентификатор кодека : V_MPEG4/ISO/AVC
    Продолжительность : 1 ч. 11 м.
    Битрейт : 1360 Кбит/сек
    Ширина : 720 пикселей
    Высота : 574 пикселя
    Соотношение сторон : 4:3
    Режим частоты кадров : Постоянный
    Частота кадров : 25,000 кадров/сек
    Цветовое пространство : YUV
    Субдискретизация насыщенности : 4:2:0
    Битовая глубина : 8 бит
    Тип развёртки : Прогрессивная
    Бит/(Пиксели*Кадры) : 0.132
    Размер потока : 680 Мбайт (86%)
    Библиотека кодирования : x264 core 146 r2538 121396c
    Настройки программы : cabac=1 / ref=8 / deblock=1:-2:-1 / analyse=0x3:0x133 / me=umh / subme=9 / psy=1 / psy_rd=1.00:0.00 / mixed_ref=1 / me_range=24 / chroma_me=1 / trellis=2 / 8x8dct=1 / cqm=0 / deadzone=21,11 / fast_pskip=0 / chroma_qp_offset=-2 / threads=3 / lookahead_threads=1 / sliced_threads=0 / nr=0 / decimate=1 / interlaced=0 / bluray_compat=0 / constrained_intra=0 / bframes=8 / b_pyramid=2 / b_adapt=2 / b_bias=0 / direct=3 / weightb=1 / open_gop=0 / weightp=2 / keyint=250 / keyint_min=25 / scenecut=40 / intra_refresh=0 / rc_lookahead=60 / rc=2pass / mbtree=1 / bitrate=1360 / ratetol=1.0 / qcomp=0.60 / qpmin=10 / qpmax=51 / qpstep=4 / cplxblur=20.0 / qblur=0.5 / vbv_maxrate=50000 / vbv_bufsize=50000 / nal_hrd=none / filler=0 / ip_ratio=1.40 / aq=1:1.00
    Default : Да
    Forced : Нет
    Аудио
    Идентификатор : 2
    Формат : MPEG Audio
    Версия формата : Version 1
    Профиль формата : Layer 2
    Идентификатор кодека : A_MPEG/L2
    Идентификатор кодека/Подсказка : MP2
    Продолжительность : 1 ч. 11 м.
    Вид битрейта : Постоянный
    Битрейт : 192 Кбит/сек
    Каналы : 2 канала
    Частота : 48,0 КГц
    Метод сжатия : С потерями
    Задержка видео : 15 мс.
    Размер потока : 98,1 Мбайт (12%)
    Default : Да
    Forced : Нет
    Общее
    Уникальный идентификатор : 171222849476248992396606598884892743116 (0x80D0524084867ECDAA853ECC01DE15CC)
    Полное имя : D:\КИНО\Адвокат\3.mkv
    Формат : Matroska
    Версия формата : Version 4 / Version 2
    Размер файла : 719 Мбайт
    Продолжительность : 1 ч. 3 м.
    Общий поток : 1590 Кбит/сек
    Дата кодирования : UTC 2015-05-22 18:04:31
    Программа кодирования : mkvmerge v7.7.0 ('Six Voices') 32bit built on Feb 28 2015 23:23:00
    Библиотека кодирования : libebml v1.3.1 + libmatroska v1.4.2
    _STATISTICS_WRITING_APP : mkvmerge v7.7.0 ('Six Voices') 32bit built on Feb 28 2015 23:23:00
    _STATISTICS_WRITING_DATE_UTC : 2015-05-22 18:04:31
    _STATISTICS_TAGS : BPS DURATION NUMBER_OF_FRAMES NUMBER_OF_BYTES
    DURATION : 01:03:14.352000000
    NUMBER_OF_FRAMES : 158098
    NUMBER_OF_BYTES : 91064448
    Видео
    Идентификатор : 1
    Формат : AVC
    Формат/Информация : Advanced Video Codec
    Профиль формата : High@L4.1
    Параметр CABAC формата : Да
    Параметр ReFrames формата : 8 кадров
    Идентификатор кодека : V_MPEG4/ISO/AVC
    Продолжительность : 1 ч. 3 м.
    Битрейт : 1396 Кбит/сек
    Ширина : 720 пикселей
    Высота : 574 пикселя
    Соотношение сторон : 4:3
    Режим частоты кадров : Постоянный
    Частота кадров : 25,000 кадров/сек
    Цветовое пространство : YUV
    Субдискретизация насыщенности : 4:2:0
    Битовая глубина : 8 бит
    Тип развёртки : Прогрессивная
    Бит/(Пиксели*Кадры) : 0.135
    Размер потока : 618 Мбайт (86%)
    Библиотека кодирования : x264 core 146 r2538 121396c
    Настройки программы : cabac=1 / ref=8 / deblock=1:-2:-1 / analyse=0x3:0x133 / me=umh / subme=9 / psy=1 / psy_rd=1.00:0.00 / mixed_ref=1 / me_range=24 / chroma_me=1 / trellis=2 / 8x8dct=1 / cqm=0 / deadzone=21,11 / fast_pskip=0 / chroma_qp_offset=-2 / threads=3 / lookahead_threads=1 / sliced_threads=0 / nr=0 / decimate=1 / interlaced=0 / bluray_compat=0 / constrained_intra=0 / bframes=8 / b_pyramid=2 / b_adapt=2 / b_bias=0 / direct=3 / weightb=1 / open_gop=0 / weightp=2 / keyint=250 / keyint_min=25 / scenecut=40 / intra_refresh=0 / rc_lookahead=60 / rc=2pass / mbtree=1 / bitrate=1396 / ratetol=1.0 / qcomp=0.60 / qpmin=10 / qpmax=51 / qpstep=4 / cplxblur=20.0 / qblur=0.5 / vbv_maxrate=50000 / vbv_bufsize=50000 / nal_hrd=none / filler=0 / ip_ratio=1.40 / aq=1:1.00
    Default : Да
    Forced : Нет
    Аудио
    Идентификатор : 2
    Формат : MPEG Audio
    Версия формата : Version 1
    Профиль формата : Layer 2
    Идентификатор кодека : A_MPEG/L2
    Идентификатор кодека/Подсказка : MP2
    Продолжительность : 1 ч. 3 м.
    Вид битрейта : Постоянный
    Битрейт : 192 Кбит/сек
    Каналы : 2 канала
    Частота : 48,0 КГц
    Метод сжатия : С потерями
    Задержка видео : 6 мс.
    Размер потока : 86,8 Мбайт (12%)
    Default : Да
    Forced : Нет

    Скриншоты

    лог

    ---[Information] [22.05.2015 12:35:32] avs [info]: 720x574p 64001:60000 @ 25/1 fps (cfr)
    ---[Information] [22.05.2015 12:35:32] x264 [info]: using SAR=64001/60000
    ---[Information] [22.05.2015 12:35:32] x264 [info]: using cpu capabilities: MMX2 SSE2Fast LZCNT
    ---[Information] [22.05.2015 12:35:32] x264 [info]: profile High, level 4.1
    ---[Information] [22.05.2015 16:28:07] x264 [info]: frame I:516 Avg QP:18.52 size: 38211
    ---[Information] [22.05.2015 16:28:07] x264 [info]: frame P:20523 Avg QP:21.30 size: 14528
    ---[Information] [22.05.2015 16:28:07] x264 [info]: frame B:79718 Avg QP:23.47 size: 4248
    ---[Information] [22.05.2015 16:28:07] x264 [info]: consecutive B-frames: 1.4% 2.5% 6.3% 12.3% 8.1% 64.9% 3.3% 0.7% 0.4%
    ---[Information] [22.05.2015 16:28:07] x264 [info]: mb I I16..4: 5.9% 84.8% 9.3%
    ---[Information] [22.05.2015 16:28:07] x264 [info]: mb P I16..4: 1.0% 7.7% 0.7% P16..4: 56.9% 17.8% 14.2% 0.2% 0.0% skip: 1.4%
    ---[Information] [22.05.2015 16:28:07] x264 [info]: mb B I16..4: 0.1% 0.5% 0.0% B16..8: 44.7% 7.1% 1.3% direct: 7.9% skip:38.5% L0:46.4% L1:43.3% BI:10.3%
    ---[Information] [22.05.2015 16:28:07] x264 [info]: 8x8 transform intra:82.4% inter:75.9%
    ---[Information] [22.05.2015 16:28:07] x264 [info]: direct mvs spatial:99.2% temporal:0.8%
    ---[Information] [22.05.2015 16:28:07] x264 [info]: coded y,uvDC,uvAC intra: 81.7% 67.2% 22.3% inter: 24.5% 28.5% 0.5%
    ---[Information] [22.05.2015 16:28:07] x264 [info]: i16 v,h,dc,p: 32% 18% 17% 33%
    ---[Information] [22.05.2015 16:28:07] x264 [info]: i8 v,h,dc,ddl,ddr,vr,hd,vl,hu: 13% 8% 6% 9% 13% 14% 12% 13% 12%
    ---[Information] [22.05.2015 16:28:07] x264 [info]: i4 v,h,dc,ddl,ddr,vr,hd,vl,hu: 12% 9% 2% 9% 14% 16% 14% 12% 13%
    ---[Information] [22.05.2015 16:28:07] x264 [info]: i8c dc,h,v,p: 31% 30% 25% 15%
    ---[Information] [22.05.2015 16:28:07] x264 [info]: Weighted P-Frames: Y:21.8% UV:5.7%
    ---[Information] [22.05.2015 16:28:07] x264 [info]: ref P L0: 38.3% 12.2% 17.5% 8.6% 7.2% 5.9% 5.5% 3.7% 1.2% 0.0%
    ---[Information] [22.05.2015 16:28:07] x264 [info]: ref B L0: 68.2% 14.5% 6.9% 4.4% 3.2% 2.1% 0.8%
    ---[Information] [22.05.2015 16:28:07] x264 [info]: ref B L1: 92.6% 7.4%
    ---[Information] [22.05.2015 16:28:07] x264 [info]: kb/s:1303.16
    ---[Information] [22.05.2015 16:28:07] encoded 100757 frames, 7.22 fps, 1303.16 kb/s
    Скачать .torrent

    Скачать торрент-файл бесплатно и на максимальной скорости!

    Как скачивать? · Что такое торрент? · Рейтинг и ограничения

    !ВНИМАНИЕ!
    Сайт не распространяет и не хранит электронные версии произведений, а занимается лишь лишь предоставлением доступа к создаваемому пользователями каталогу ссылок на торрент-файлы, которые содержат только списки хеш-сумм, убедительная просьба с жалобами обращаться напрямую к пользователю. Файлы для обмена на трекере предоставлены пользователями сайта, и администрация не несёт ответственности за их содержание. Просьба не заливать файлы, защищенные авторскими правами, а также файлы нелегального содержания!


    _________________
    [Профиль] [ЛС]
    Показать сообщения:    
    Ответить на тему

    Текущее время: Сегодня, в 12:46

    Часовой пояс: GMT + 2



    Вы не можете начинать темы
    Вы не можете отвечать на сообщения
    Вы не можете редактировать свои сообщения
    Вы не можете удалять свои сообщения
    Вы не можете голосовать в опросах
    Вы не можете прикреплять файлы к сообщениям
    Вы не можете скачивать файлы