BitTorrentTracker PerecTracker.org
BitTorrentTracker PerecTracker.org
    
Регистрация  ·  Вход
 
 · 
Забыли пароль?

  • Kingsman: Секретная служба / Kingsman: The Secret Service (Мэттью Вон / Matthew Vaughn) [2014 г., Великобритания, боевик, комедия, криминал, приключения, BDRip-AVC] Dub + Ukr + Original Eng + Sub (Rus, Ukr, Eng)

    Ответить на тему
     
    Автор Сообщение

    Light

    Создавать темы 01-Июн-2015 23:18

           

    [Цитировать]

    -Kingsman: Секретная служба / Kingsman: The Secret ServiceСтрана: Великобритания
    Студия: 20th Century Fox Film Corporation, Marv Films, TSG Entertainment
    Жанр: боевик, комедия, криминал, приключения
    Год выпуска: 2014
    Продолжительность: 02:08:44-Перевод: Профессиональный (полное дублирование) BD EUR
    Оригинальная аудиодорожка: английская
    Cубтитры: русские, украинские, английские
    Режиссер: Мэттью Вон / Matthew Vaughn
    В ролях: Тэрон Эджертон, Колин Фёрт, Сэмюэл Л. Джексон, Марк Стронг, Софи Куксон, Майкл Кейн, София Бутелла, Саманта Янус, Джофф Белл, Марк Хэмилл
    Описание: Эггси — молодой парень, который прошел службу в морской пехоте и имеет очень высокий уровень интеллекта. Он мог бы добиться многого, но выбрал другой путь и стал мелким преступником. Однажды он знакомится с Гарри Хартом, которому его отец когда-то спас жизнь. Этот человек решил сделать все возможное, чтобы сделать жизнь Эггси лучше и открыть для него новые возможности.
    Гарри рассказал ему, что является агентом секретной независимой организации, которая стоит на защите всего мира. Он предложил парню пройти обучение и стать новым членом их команды. Эггси принял предложение Харта, но сможет ли он справиться со всеми испытаниями и оправдать его надежды?..-
    Сэмпл: скачать-Релиз от -
    Автор рипа: Elheym
    Качество: BDRip-AVC (источник: / Blu-ray EUR [KINGSMAN_THE_SECRET_SERVICE_HDCLUB] / 1080p)
    Контейнер: MKV
    Видео: 1146x480 (2.40:1), 23.976 fps, MPEG-4 AVC, ~2780 kbps avg, 0.211 bit/pixel
    Аудио #1: Русский: AC3, 5.1, 48 kHz, ~448 Кбит/с | Профессиональный (полное дублирование), BD EUR |
    Аудио #2: Английский: AC3, 5.1, 48 kHz, ~448 Кбит/с | Оригинал | (отдельно)
    Аудио #3: Украинский: AC3, 5.1, 48 kHz, ~448 Кбит/с | Профессиональный (полное дублирование), BD EUR | (отдельно)
    Субтитры: русские (полные), украинские (полные), английские (полные, форсированные, SDH, SDH цветные)
    Главы: Присутствуют, сохранены оригинальные

    MediaInfo

    Уникальный идентификатор : 222124912132547299481804929616070951433 (0xA71BB3B41CBFEC8ABD1E8743C5DDC209)
    Полное имя : Kingsman.The.Secret.Service.2014.RUS.BDRip-AVC.x264.AC3.-HQCLUB.mkv
    Формат : Matroska
    Версия формата : Version 2
    Размер файла : 2,90 Гбайт
    Продолжительность : 2 ч. 8 м.
    Общий поток : 3228 Кбит/сек
    Название фильма : Kingsman: Секретная служба / Kingsman: The Secret Service (2014) BDRip-AVC by HQCLUB [Elheym]
    Дата кодирования : UTC 2015-06-01 12:50:35
    Программа кодирования : mkvmerge v5.2.0 ('I can't explain') built on Dec 18 2011 18:12:03
    Библиотека кодирования : libebml v1.2.3 + libmatroska v1.3.0
    Attachements : Cover.jpg
    Видео
    Идентификатор : 1
    Формат : AVC
    Формат/Информация : Advanced Video Codec
    Профиль формата : High@L4
    Параметр CABAC формата : Да
    Параметр ReFrames формата : 14 кадров
    Идентификатор кодека : V_MPEG4/ISO/AVC
    Продолжительность : 2 ч. 8 м.
    Битрейт : 2780 Кбит/сек
    Ширина : 1146 пикселей
    Высота : 480 пикселей
    Соотношение сторон : 2,40:1
    Режим частоты кадров : Постоянный
    Частота кадров : 23,976 кадра/сек
    Цветовое пространство : YUV
    Субдискретизация насыщенности : 4:2:0
    Битовая глубина : 8 бит
    Тип развёртки : Прогрессивная
    Бит/(Пиксели*Кадры) : 0.211
    Размер потока : 2,44 Гбайт (84%)
    Заголовок : Kingsman: Секретная служба / Kingsman: The Secret Service (2014) BDRip-AVC by HQCLUB [Elheym]
    Библиотека кодирования : x264 core 146 r0+2586 e393126 t_mod_Custom [8-bit@all X86_64]
    Настройки программы : cabac=1 / ref=14 / deblock=1:-2:-1 / analyse=0x3:0x113 / me=umh / subme=11 / psy=1 / fade_compensate=0.00 / psy_rd=1.05:0.05 / mixed_ref=1 / me_range=28 / chroma_me=1 / trellis=2 / 8x8dct=1 / cqm=0 / deadzone=21,11 / fast_pskip=0 / chroma_qp_offset=-3 / threads=6 / lookahead_threads=2 / sliced_threads=0 / nr=0 / decimate=0 / interlaced=0 / bluray_compat=0 / constrained_intra=0 / fgo=0 / bframes=16 / b_pyramid=2 / b_adapt=2 / b_bias=0 / direct=3 / weightb=1 / open_gop=0 / weightp=2 / keyint=230 / keyint_min=23 / scenecut=40 / intra_refresh=0 / rc_lookahead=80 / rc=2pass / mbtree=0 / bitrate=2780 / ratetol=1.0 / qcomp=0.80 / qpmin=0:0:0 / qpmax=69:69:69 / qpstep=4 / cplxblur=20.0 / qblur=0.5 / vbv_maxrate=20000 / vbv_bufsize=25000 / nal_hrd=none / filler=0 / ip_ratio=1.40 / pb_ratio=1.30 / aq=2:0.90 / aq-sensitivity=10.00 / aq-factor=1.00:1.00:1.00 / aq2=0 / aq3=0 / zones=175360,185194,b=0.25
    Язык : English
    Default : Да
    Forced : Нет
    Аудио
    Идентификатор : 2
    Формат : AC-3
    Формат/Информация : Audio Coding 3
    Расширение режима : CM (complete main)
    Параметр Endianness формата : Big
    Идентификатор кодека : A_AC3
    Продолжительность : 2 ч. 8 м.
    Вид битрейта : Постоянный
    Битрейт : 448 Кбит/сек
    Каналы : 6 каналов
    Расположение каналов : Front: L C R, Side: L R, LFE
    Частота : 48,0 КГц
    Метод сжатия : С потерями
    Размер потока : 413 Мбайт (14%)
    Заголовок : АС3 5.1 @ 448 kbps - Dub, BD EUR
    Язык : Russian
    Default : Нет
    Forced : Нет
    Текст #1
    Идентификатор : 3
    Формат : UTF-8
    Идентификатор кодека : S_TEXT/UTF8
    Идентификатор кодека/Информация : UTF-8 Plain Text
    Заголовок : Full
    Язык : Russian
    Default : Нет
    Forced : Нет
    Текст #2
    Идентификатор : 4
    Формат : UTF-8
    Идентификатор кодека : S_TEXT/UTF8
    Идентификатор кодека/Информация : UTF-8 Plain Text
    Заголовок : Full
    Язык : Ukrainian
    Default : Нет
    Forced : Нет
    Текст #3
    Идентификатор : 5
    Формат : UTF-8
    Идентификатор кодека : S_TEXT/UTF8
    Идентификатор кодека/Информация : UTF-8 Plain Text
    Заголовок : Full
    Язык : English
    Default : Нет
    Forced : Нет
    Текст #4
    Идентификатор : 6
    Формат : UTF-8
    Идентификатор кодека : S_TEXT/UTF8
    Идентификатор кодека/Информация : UTF-8 Plain Text
    Заголовок : Forced
    Язык : English
    Default : Нет
    Forced : Нет
    Текст #5
    Идентификатор : 7
    Формат : UTF-8
    Идентификатор кодека : S_TEXT/UTF8
    Идентификатор кодека/Информация : UTF-8 Plain Text
    Заголовок : SDH
    Язык : English
    Default : Нет
    Forced : Нет
    Текст #6
    Идентификатор : 8
    Формат : UTF-8
    Идентификатор кодека : S_TEXT/UTF8
    Идентификатор кодека/Информация : UTF-8 Plain Text
    Заголовок : SDH Colored
    Язык : English
    Default : Нет
    Forced : Нет
    Меню
    00:00:00.000 : :Chapter 01
    00:02:55.466 : :Chapter 03
    00:04:50.665 : :Chapter 05
    00:08:34.180 : :Chapter 07
    00:11:49.875 : :Chapter 09
    00:13:04.575 : :Chapter 11
    00:15:57.998 : :Chapter 13
    00:18:25.979 : :Chapter 15
    00:23:48.051 : :Chapter 17
    00:25:37.327 : :Chapter 19
    00:29:53.750 : :Chapter 21
    00:32:25.276 : :Chapter 23
    00:33:47.900 : :Chapter 25
    00:37:01.469 : :Chapter 27
    00:38:49.618 : :Chapter 29
    00:42:46.021 : :Chapter 31
    00:45:03.867 : :Chapter 33
    00:47:42.276 : :Chapter 35
    00:53:47.557 : :Chapter 37
    00:57:28.194 : :Chapter 39
    01:03:29.514 : :Chapter 41
    01:05:21.876 : :Chapter 43
    01:10:27.932 : :Chapter 45
    01:13:10.219 : :Chapter 47
    01:15:01.955 : :Chapter 49
    01:16:58.196 : :Chapter 51
    01:23:03.812 : :Chapter 53
    01:25:57.402 : :Chapter 55
    01:31:21.309 : :Chapter 57
    01:34:38.798 : :Chapter 59
    01:36:27.948 : :Chapter 61
    01:39:59.994 : :Chapter 63
    01:44:07.866 : :Chapter 65
    01:50:31.082 : :Chapter 67
    01:58:21.219 : :Chapter 69
    01:59:38.462 : :Chapter 71
    02:08:43.924 : :Chapter 72

    x264 log

    x264 [info]: frame I:1822 Avg QP:13.81 size:100645
    x264 [info]: frame P:43004 Avg QP:17.33 size: 31215
    x264 [info]: frame B:140369 Avg QP:19.54 size: 8236
    x264 [info]: consecutive B-frames: 4.1% 3.6% 10.7% 17.3% 16.8% 29.9% 6.4% 5.0% 2.4% 0.8% 0.9% 0.5% 0.4% 0.7% 0.2% 0.1% 0.3%
    x264 [info]: ref P L0: 48.1% 10.4% 17.1% 6.0% 4.8% 3.2% 2.8% 1.4% 1.4% 1.2% 1.0% 0.8% 0.8% 0.7% 0.2% 0.0%
    x264 [info]: ref B L0: 72.1% 12.6% 5.6% 2.7% 1.9% 1.4% 1.1% 0.7% 0.6% 0.5% 0.4% 0.3% 0.1%
    x264 [info]: ref B L1: 91.6% 8.4%

    Скриншоты

    Сравнения с исходником

    Источник- -Рип-
    Цитата:
    Цитата:

    Версия без купюр: не для просмотра с детьми.
    Скачать .torrent

    Скачать торрент-файл бесплатно и на максимальной скорости!

    Как скачивать? · Что такое торрент? · Рейтинг и ограничения

    !ВНИМАНИЕ!
    Сайт не распространяет и не хранит электронные версии произведений, а занимается лишь лишь предоставлением доступа к создаваемому пользователями каталогу ссылок на торрент-файлы, которые содержат только списки хеш-сумм, убедительная просьба с жалобами обращаться напрямую к пользователю. Файлы для обмена на трекере предоставлены пользователями сайта, и администрация не несёт ответственности за их содержание. Просьба не заливать файлы, защищенные авторскими правами, а также файлы нелегального содержания!


    _________________
    [Профиль] [ЛС]
    Показать сообщения:    
    Ответить на тему

    Текущее время: Сегодня, в 22:07

    Часовой пояс: GMT + 2



    Вы не можете начинать темы
    Вы не можете отвечать на сообщения
    Вы не можете редактировать свои сообщения
    Вы не можете удалять свои сообщения
    Вы не можете голосовать в опросах
    Вы не можете прикреплять файлы к сообщениям
    Вы не можете скачивать файлы