BitTorrentTracker PerecTracker.org
BitTorrentTracker PerecTracker.org
    
Регистрация  ·  Вход
 
 · 
Забыли пароль?

  • Гнев / Tokarev (Пако Кабесас / Paco Cabezas ) [2014, США, Франция, Боевик, триллер, криминал, BDRip, HD (720p)] DUB + Original + sub (rus, eng)

    Ответить на тему
     
    Автор Сообщение

    rechyn

    Создавать темы 01-Июн-2015 14:54

           

    [Цитировать]

    Гнев / Tokarev
    «Прошлое никогда не оставит тебя»
    5.250 / 10 5.00 / 10
    -Год выпуска: 2014
    Страна: США, Франция
    Жанр: Боевик, триллер, криминал
    Продолжительность: 01:38:26
    Перевод: Дублированный (Лицензия)
    Оригинальная аудиодорожка: Есть
    Cубтитры: Русские, Английские
    Режиссёр: Пако Кабесас
    Сценарий: Джим Эгнью, Шон Келлер
    Продюсер: Майкл Мендельсон, Ричард Рионда Дель Кастро, Джим Эгнью
    Оператор: Анджей Секула
    Композитор: Лорен Эйкем
    Художник: Винсент ДеФеличе, Джо Леммон, Криттер Пирс
    Монтаж: Роберт А. Ферретти
    В ролях: Николас Кейдж, Рэйчел Николс, Макс Райан, Майкл МакГрэйди, Петер Стормаре, Павел Личникофф, Патрис Колс, Макс Фаулер, Обри Пиплз, Джек Фалахи
    Бюджет: $21 000 000
    Сборы в России: $130 216
    Мировая премьера: 31 января 2014
    Премьера (РФ): 12 марта 2015, «Парадиз»
    Описание: Еще несколько лет назад Пол Магуаер раскаялся в былых преступлениях. Теперь он — честный бизнесмен и заботливый семьянин. Но криминальное прошлое не отпускает его. Однажды неизвестные врываются в дом Магуаера и жестоко убивают его дочь. Месть отца будет беспощадной…-Качество исходника: BDRemux (NNMClub)
    Качество: BDRip
    Тип: HD (720p)
    Контейнер: M4V
    Видео: H.264, 1280x544, 2.35:1, 3 500 Kbps, 23.976 fps
    Аудио 1: Русский/Дублированный (Лицензия), AAC / 2.0 / 158 Kbps / 48.0 KHz
    Аудио 2: Английский/Оригинальная дорожка , AAC / 2.0 / 158 Kbps / 48.0 KHz
    Аудио 3: Русский/Дублированный (Лицензия), AC-3 / 5.1 / 640 Kbps / 48.0 KHz
    Аудио 4: Английский/Оригинальная дорожка , AC-3 / 5.1 / 640 Kbps / 48.0 KHz
    Субтитры 1: Русские полные
    Субтитры 2: Английские полные
    -

    iTunes Meta Tags

    Sort Name: Tokarev
    XID: Apple:vendor_id:2014-683623
    contentID: 903972851
    Copyright: © 2014 Tokarev Production, Inc. All Rights Reserved.
    Screenwriters: Джим Эгнью, Шон Келлер
    Producers: Майкл Мендельсон, Ричард Рионда Дель Кастро, Джим Эгнью
    Director: Пако Кабесас
    Cast: Николас Кейдж, Рэйчел Николс, Макс Райан, Майкл МакГрэйди, Петер Стормаре, Павел Личникофф, Патрис Колс, Макс Фаулер, Обри Пиплз, Джек Фалахи, Роман Куперман, Иван Жарков, Денис Строев
    Studio: Anchor Bay
    Rating: 131
    Long Description: Еще несколько лет назад Пол Магуаер раскаялся в былых преступлениях. Теперь он - честный бизнесмен и заботливый семьянин. Но криминальное прошлое не отпускает его. Однажды неизвестные врываются в дом Магуаера и жестоко убивают его дочь. Месть отца будет беспощадной...
    Description: Еще несколько лет назад Пол Магуаер раскаялся в былых преступлениях. Теперь он - честный бизнесмен и заботливый семьянин. Но криминальное прошлое не отпускает его. Однажды неизвестные врываются в дом Магуаера и жестоко убивают его дочь. Месть отца будет беспощадной...
    Release Date: 2014-01-31T08:00:00Z
    Genre: Thriller
    Artist: Paco Cabezas
    Name: Tokarev (2014)

    MediaInfo

    General
    Complete name                            : /Users/imac/HandBrake/Tokarev (720p HD).m4v
    Format                                   : MPEG-4
    Codec ID                                 : M4V
    File size                                : 3.51 GiB
    Duration                                 : 1h 38mn
    Overall bit rate mode                    : Variable
    Overall bit rate                         : 5 100 Kbps
    Movie name                               : Tokarev (2014)
    Performer                                : Paco Cabezas
    Genre                                    : Thriller
    Recorded date                            : UTC 2014-01-31 08:00:00
    Encoded date                             : UTC 2015-06-01 10:53:20
    Tagged date                              : UTC 2015-06-01 10:55:52
    Copyright                                : © 2014 Tokarev Production, Inc. All Rights Reserved.
    Cover                                    : Yes
    sonm                                     : Tokarev
    desc                                     : Еще несколько лет назад Пол Магуаер раскаялся в былых преступлениях. Теперь он - честный бизнесмен и заботливый семьянин. Но криминальное прошлое не отпускает его. Однажды неизвестные врываются в дом Магуаера и жестоко убивают его дочь. Месть отца будет беспощадной...
    ldes                                     : Еще несколько лет назад Пол Магуаер раскаялся в былых преступлениях. Теперь он - честный бизнесмен и заботливый семьянин. Но криминальное прошлое не отпускает его. Однажды неизвестные врываются в дом Магуаера и жестоко убивают его дочь. Месть отца будет беспощадной...
    hdvd                                     : 1
    stik                                     : 9
    rtng                                     : 0
    cnID                                     : 903972851
    xid                                      : Apple:vendor_id:2014-683623
    iTunEXTC                                 : uk-movie|15|350|
    iTunMOVI                                 : <?xml version=\"1.0\" encoding=\"UTF-8\"?> / <!DOCTYPE plist PUBLIC \"-//Apple//DTD PLIST 1.0//EN\" \"http://anonym.to/?http://www.apple.com/DTDs/PropertyList-1.0.dtd\"> / <plist version=\"1.0\"> / <dict> /  <key>cast</key> /  <array> /   <dict> /    <key>name</key> /    <string>Николас Кейдж</string> /   </dict> /   <dict> /    <key>name</key> /    <string>Рэйчел Николс</string> /   </dict> /   <dict> /    <key>name</key> /    <string>Макс Райан</string> /   </dict> /   <dict> /    <key>name</key> /    <string>Майкл МакГрэйди</string> /   </dict> /   <dict> /    <key>name</key> /    <string>Петер Стормаре</string> /   </dict> /   <dict> /    <key>name</key> /    <string>Павел Личникофф</string> /   </dict> /   <dict> /    <key>name</key> /    <string>Патрис Колс</string> /   </dict> /   <dict> /    <key>name</key> /    <string>Макс Фаулер</string> /   </dict> /   <dict> /    <key>name</key> /    <string>Обри Пиплз</string> /   </dict> /   <dict> /    <key>name</key> /    <string>Джек Фалахи</string> /   </dict> /   <dict> /    <key>name</key> /    <string>Роман Куперман</string> /   </dict> /   <dict> /    <key>name</key> /    <string>Иван Жарков</string> /   </dict> /   <dict> /    <key>name</key> /    <string>Денис Строев</string> /   </dict> /  </array> /  <key>directors</key> /  <array> /   <dict> /    <key>name</key> /    <string>Пако Кабесас</string> /   </dict> /  </array> /  <key>producers</key> /  <array> /   <dict> /    <key>name</key> /    <string>Майкл Мендельсон</string> /   </dict> /   <dict> /    <key>name</key> /    <string>Ричард Рионда Дель Кастро</string> /   </dict> /   <dict> /    <key>name</key> /    <string>Джим Эгнью</string> /   </dict> /  </array> /  <key>screenwriters</key> /  <array> /   <dict> /    <key>name</key> /    <string>Джим Эгнью</string> /   </dict> /   <dict> /    <key>name</key> /    <string>Шон Келлер</string> /   </dict> /  </array> /  <key>studio</key> /  <string>Anchor Bay</string> / </dict> / </plist>
    Video #1
    ID                                       : 1
    Format                                   : AVC
    Format/Info                              : Advanced Video Codec
    Format profile                           : High@L3.1
    Format settings, CABAC                   : No
    Format settings, ReFrames                : 3 frames
    Codec ID                                 : avc1
    Codec ID/Info                            : Advanced Video Coding
    Duration                                 : 1h 38mn
    Bit rate mode                            : Variable
    Bit rate                                 : 3 500 Kbps
    Width                                    : 1 280 pixels
    Height                                   : 544 pixels
    Display aspect ratio                     : 2.35:1
    Frame rate mode                          : Variable
    Frame rate                               : 23.976 fps
    Minimum frame rate                       : 23.810 fps
    Maximum frame rate                       : 24.272 fps
    Color space                              : YUV
    Chroma subsampling                       : 4:2:0
    Bit depth                                : 8 bits
    Scan type                                : Progressive
    Bits/(Pixel*Frame)                       : 0.210
    Stream size                              : 2.41 GiB (69%)
    Writing library                          : x264 core 142 r2479 dd79a61
    Encoding settings                        : cabac=0 / ref=3 / deblock=1:-3:-3 / analyse=0x3:0x113 / me=umh / subme=9 / psy=1 / psy_rd=1.00:0.15 / mixed_ref=1 / me_range=32 / chroma_me=1 / trellis=0 / 8x8dct=1 / cqm=0 / deadzone=21,11 / fast_pskip=0 / chroma_qp_offset=-2 / threads=36 / lookahead_threads=3 / sliced_threads=0 / nr=0 / decimate=0 / interlaced=0 / bluray_compat=0 / constrained_intra=0 / bframes=3 / b_pyramid=0 / b_adapt=2 / b_bias=0 / direct=1 / weightb=0 / open_gop=0 / weightp=0 / keyint=240 / keyint_min=24 / scenecut=40 / intra_refresh=0 / rc_lookahead=40 / rc=2pass / mbtree=1 / bitrate=3500 / ratetol=1.0 / qcomp=0.65 / qpmin=0 / qpmax=69 / qpstep=4 / cplxblur=20.0 / qblur=0.5 / vbv_maxrate=9500 / vbv_bufsize=9500 / nal_hrd=none / filler=0 / ip_ratio=1.40 / aq=1:1.10
    Language                                 : English
    Encoded date                             : UTC 2015-06-01 10:53:20
    Tagged date                              : UTC 2015-06-01 10:53:31
    Color primaries                          : BT.709-5, BT.1361, IEC 61966-2-4, SMPTE RP177
    Transfer characteristics                 : BT.709-5, BT.1361
    Matrix coefficients                      : BT.709-5, BT.1361, IEC 61966-2-4 709, SMPTE RP177
    Video #2
    ID                                       : 9
    Format                                   : JPEG
    Codec ID                                 : jpeg
    Duration                                 : 1h 38mn
    Bit rate mode                            : Variable
    Bit rate                                 : 635 bps
    Width                                    : 640 pixels
    Height                                   : 272 pixels
    Display aspect ratio                     : 2.35:1
    Frame rate mode                          : Variable
    Frame rate                               : 0.002 fps
    Minimum frame rate                       : 0.001 fps
    Maximum frame rate                       : 0.003 fps
    Color space                              : YUV
    Chroma subsampling                       : 4:2:0
    Bit depth                                : 8 bits
    Compression mode                         : Lossy
    Bits/(Pixel*Frame)                       : 1.824
    Stream size                              : 465 KiB (0%)
    Language                                 : English
    Encoded date                             : UTC 2015-06-01 10:53:38
    Tagged date                              : UTC 2015-06-01 10:53:39
    Audio #1
    ID                                       : 2
    Format                                   : AAC
    Format/Info                              : Advanced Audio Codec
    Format profile                           : LC
    Codec ID                                 : 40
    Duration                                 : 1h 38mn
    Bit rate mode                            : Variable
    Bit rate                                 : 158 Kbps
    Maximum bit rate                         : 231 Kbps
    Channel(s)                               : 2 channels
    Channel positions                        : Front: L R
    Sampling rate                            : 48.0 KHz
    Compression mode                         : Lossy
    Stream size                              : 111 MiB (3%)
    Language                                 : Russian
    Encoded date                             : UTC 2015-06-01 10:53:20
    Tagged date                              : UTC 2015-06-01 10:53:34
    Audio #2
    ID                                       : 3
    Format                                   : AAC
    Format/Info                              : Advanced Audio Codec
    Format profile                           : LC
    Codec ID                                 : 40
    Duration                                 : 1h 38mn
    Bit rate mode                            : Variable
    Bit rate                                 : 158 Kbps
    Maximum bit rate                         : 257 Kbps
    Channel(s)                               : 2 channels
    Channel positions                        : Front: L R
    Sampling rate                            : 48.0 KHz
    Compression mode                         : Lossy
    Stream size                              : 111 MiB (3%)
    Language                                 : English
    Encoded date                             : UTC 2015-06-01 10:53:20
    Tagged date                              : UTC 2015-06-01 10:53:34
    Audio #3
    ID                                       : 4
    Format                                   : AC-3
    Format/Info                              : Audio Coding 3
    Mode extension                           : CM (complete main)
    Format settings, Endianness              : Big
    Codec ID                                 : ac-3
    Duration                                 : 1h 38mn
    Bit rate mode                            : Constant
    Bit rate                                 : 640 Kbps
    Channel(s)                               : 6 channels
    Channel positions                        : Front: L C R, Side: L R, LFE
    Sampling rate                            : 48.0 KHz
    Bit depth                                : 16 bits
    Compression mode                         : Lossy
    Stream size                              : 449 MiB (13%)
    Language                                 : Russian
    Encoded date                             : UTC 2015-06-01 10:53:20
    Tagged date                              : UTC 2015-06-01 10:53:31
    Audio #4
    ID                                       : 5
    Format                                   : AC-3
    Format/Info                              : Audio Coding 3
    Mode extension                           : CM (complete main)
    Format settings, Endianness              : Big
    Codec ID                                 : ac-3
    Duration                                 : 1h 38mn
    Bit rate mode                            : Constant
    Bit rate                                 : 640 Kbps
    Channel(s)                               : 6 channels
    Channel positions                        : Front: L C R, Side: L R, LFE
    Sampling rate                            : 48.0 KHz
    Bit depth                                : 16 bits
    Compression mode                         : Lossy
    Stream size                              : 451 MiB (13%)
    Language                                 : English
    Encoded date                             : UTC 2015-06-01 10:53:20
    Tagged date                              : UTC 2015-06-01 10:53:31
    Text #1
    ID                                       : 6
    Format                                   : Timed text
    Muxing mode                              : sbtl
    Codec ID                                 : tx3g
    Duration                                 : 1h 33mn
    Bit rate mode                            : Variable
    Bit rate                                 : 88 bps
    Stream size                              : 59.8 KiB (0%)
    Language                                 : Russian
    Encoded date                             : UTC 2015-06-01 10:53:20
    Tagged date                              : UTC 2015-06-01 10:53:23
    Text #2
    ID                                       : 7
    Format                                   : Timed text
    Muxing mode                              : sbtl
    Codec ID                                 : tx3g
    Duration                                 : 1h 29mn
    Bit rate mode                            : Variable
    Bit rate                                 : 57 bps
    Stream size                              : 37.2 KiB (0%)
    Language                                 : English
    Encoded date                             : UTC 2015-06-01 10:53:20
    Tagged date                              : UTC 2015-06-01 10:53:23
    Text #3
    ID                                       : 8
    Format                                   : Apple text
    Codec ID                                 : text
    Duration                                 : 1h 38mn
    Bit rate mode                            : Variable
    Bit rate                                 : 0 bps
    Stream size                              : 279 Bytes (0%)
    Language                                 : English
    Encoded date                             : UTC 2015-06-01 10:53:34
    Tagged date                              : UTC 2015-06-01 10:53:34
    Menu
    00:00:00.000                             : Chapter 1
    00:08:35.682                             : Chapter 2
    00:16:44.378                             : Chapter 3
    00:25:00.082                             : Chapter 4
    00:37:21.531                             : Chapter 5
    00:42:16.284                             : Chapter 6
    00:48:20.439                             : Chapter 7
    00:55:27.115                             : Chapter 8
    01:07:48.815                             : Chapter 9
    01:13:20.229                             : Chapter 10
    01:19:58.794                             : Chapter 11
    01:27:23.155                             : Chapter 12

    x264 лог

    x264 [info]: frame I:1498  Avg QP:14.12  size: 92591
    x264 [info]: frame P:55602 Avg QP:16.94  size: 30734
    x264 [info]: frame B:84524 Avg QP:18.54  size:  8698
    x264 [info]: consecutive B-frames:  6.7% 29.0% 36.8% 27.5%
    x264 [info]: mb I  I16..4: 13.1% 52.4% 34.5%
    x264 [info]: mb P  I16..4:  3.4%  8.6%  3.8%  P16..4: 41.2% 22.5%  9.0%  0.0%  0.0%    skip:11.5%
    x264 [info]: mb B  I16..4:  0.4%  1.0%  0.5%  B16..8: 41.1% 10.4%  1.5%  direct: 4.9%  skip:40.1%  L0:40.3% L1:50.7% BI: 9.0%
    x264 [info]: 8x8 transform intra:54.0% inter:44.9%
    x264 [info]: coded y,uvDC,uvAC intra: 73.1% 73.1% 47.0% inter: 24.3% 23.7% 11.6%
    x264 [info]: i16 v,h,dc,p: 59% 13%  6% 22%
    x264 [info]: i8 v,h,dc,ddl,ddr,vr,hd,vl,hu: 10% 10%  9% 10% 13% 13% 13% 11% 11%
    x264 [info]: i4 v,h,dc,ddl,ddr,vr,hd,vl,hu: 11% 11%  7% 10% 15% 14% 13% 10%  8%
    x264 [info]: i8c dc,h,v,p: 53% 18% 20%  9%
    x264 [info]: ref P L0: 73.1% 15.7% 11.2%
    x264 [info]: ref B L0: 80.7% 19.3%
    x264 [info]: kb/s:3497.91

    Скриншоты

    -

    Релиз подготовлен для просмотра на Apple TV, iPad, iPhone, iPod Touch.
    Для просмотра данного релиза на компьютере с ОС Windows рекомендуется использовать VLC media player
    Скачать .torrent

    Скачать торрент-файл бесплатно и на максимальной скорости!

    Как скачивать? · Что такое торрент? · Рейтинг и ограничения

    !ВНИМАНИЕ!
    Сайт не распространяет и не хранит электронные версии произведений, а занимается лишь лишь предоставлением доступа к создаваемому пользователями каталогу ссылок на торрент-файлы, которые содержат только списки хеш-сумм, убедительная просьба с жалобами обращаться напрямую к пользователю. Файлы для обмена на трекере предоставлены пользователями сайта, и администрация не несёт ответственности за их содержание. Просьба не заливать файлы, защищенные авторскими правами, а также файлы нелегального содержания!


    _________________
    [Профиль] [ЛС]
    Показать сообщения:    
    Ответить на тему

    Текущее время: Сегодня, в 17:35

    Часовой пояс: GMT + 2



    Вы не можете начинать темы
    Вы не можете отвечать на сообщения
    Вы не можете редактировать свои сообщения
    Вы не можете удалять свои сообщения
    Вы не можете голосовать в опросах
    Вы не можете прикреплять файлы к сообщениям
    Вы не можете скачивать файлы