BitTorrentTracker PerecTracker.org
BitTorrentTracker PerecTracker.org
    
Регистрация  ·  Вход
 
 · 
Забыли пароль?

  • Убить гонца / Kill the Messenger (Майкл Куэста / Michael Cuesta) [2014, США, триллер, драма, криминал, детектив, история, BDRip-AVC] Dub + Sub Eng + Original Eng

    Ответить на тему
     
    Автор Сообщение

    Light

    Создавать темы 01-Июн-2015 10:42

           

    [Цитировать]

    Убить гонца
    Kill the Messenger

    Страна: США
    Жанр: триллер, драма, криминал, детектив, история
    Год выпуска: 2014
    Продолжительность: 01:51:55
    Перевод: Профессиональный (дублированный)
    Cубтитры: английские
    Оригинальная аудиодорожка: английский
    Режиссер: Майкл Куэста / Michael Cuesta
    В ролях: Джереми Реннер, Мэри Элизабет Уинстэд, Розмари ДеУитт, Барри Пеппер, Рэй Лиотта, Тим Блейк Нельсон, Майкл Кеннет Уильямс, Оливер Платт, Энди Гарсиа, Майкл Шин
    Описание: Репортер, собирая материал для статьи, попадает в нестандартную ситуацию: он находит секретные файлы ЦРУ, в которых четко прописано причастие госорганов к транспортировке кокаина в особо крупных размерах в Калифорнию. Несмотря на все неприятности, последующие за разоблачением, публикация выходит в одном из самых известных журналов США. Существование репортера становится нежелательным для всех, кто хоть как-то соприкасался с «кокаиновым» делом. После широкой огласки статьи убить журналиста просто так нельзя, ведь тогда правдивость материала станет очевидной, зато ведомство может обвинить репортера в другом…

    Сэмпл: скачать
    Качество видео: BDRip-AVC [исх.: Blu-ray Disc -BLUEBIRD]
    Формат видео: MKV
    Видео: AVC, 720 x 304 (2,40:1), 1899 kbps, 23,976 fps, 0,36 bpp
    Аудио: AC3, 6ch, 48 kHz, ~448 kbps, 16 bit
    Аудио 2: AC3, 6ch, 48 kHz, ~448 kbps, 16 bit
    Формат субтитров: softsub (SRT)

    MediaInfo

    Уникальный идентификатор : 218371793813864683747856221908868514916 (0xA448E0AF15780C6F9D95E796F4AFC464)
    Полное имя : F:\Films\Kill\Kill_the_mes.mkv
    Формат : Matroska
    Версия формата : Version 4 / Version 2
    Размер файла : 2,18 Гбайт
    Продолжительность : 1 ч. 51 м.
    Общий поток : 2794 Кбит/сек
    Дата кодирования : UTC 2015-05-30 03:00:01
    Программа кодирования : mkvmerge v7.7.0 ('Six Voices') 64bit built on Feb 28 2015 23:39:33
    Библиотека кодирования : libebml v1.3.1 + libmatroska v1.4.2
    _STATISTICS_WRITING_APP : mkvmerge v7.7.0 ('Six Voices') 64bit built on Feb 28 2015 23:39:33
    _STATISTICS_WRITING_DATE_UTC : 2015-05-30 03:00:01
    _STATISTICS_TAGS : BPS DURATION NUMBER_OF_FRAMES NUMBER_OF_BYTES
    DURATION : 01:44:38.521000000
    NUMBER_OF_FRAMES : 1627
    NUMBER_OF_BYTES : 54952
    Видео
    Идентификатор : 1
    Формат : AVC
    Формат/Информация : Advanced Video Codec
    Профиль формата : High@L4.1
    Параметр CABAC формата : Да
    Параметр ReFrames формата : 8 кадров
    Идентификатор кодека : V_MPEG4/ISO/AVC
    Продолжительность : 1 ч. 51 м.
    Битрейт : 1899 Кбит/сек
    Ширина : 720 пикселей
    Высота : 304 пикселя
    Соотношение сторон : 2,40:1
    Соотношение сторон в оригинале : 2,40:1
    Режим частоты кадров : Постоянный
    Частота кадров : 23,976 кадра/сек
    Цветовое пространство : YUV
    Субдискретизация насыщенности : 4:2:0
    Битовая глубина : 8 бит
    Тип развёртки : Прогрессивная
    Бит/(Пиксели*Кадры) : 0.362
    Размер потока : 1,44 Гбайт (66%)
    Библиотека кодирования : x264 core 142 r2431 ac76440
    Настройки программы : cabac=1 / ref=8 / deblock=1:-2:-1 / analyse=0x3:0x133 / me=umh / subme=9 / psy=1 / psy_rd=1.00:0.05 / mixed_ref=0 / me_range=36 / chroma_me=1 / trellis=2 / 8x8dct=1 / cqm=0 / deadzone=21,11 / fast_pskip=0 / chroma_qp_offset=-3 / threads=4 / lookahead_threads=1 / sliced_threads=0 / nr=0 / decimate=0 / interlaced=0 / bluray_compat=0 / constrained_intra=0 / bframes=12 / b_pyramid=2 / b_adapt=2 / b_bias=0 / direct=1 / weightb=1 / open_gop=0 / weightp=2 / keyint=240 / keyint_min=23 / scenecut=40 / intra_refresh=0 / rc=2pass / mbtree=0 / bitrate=1899 / ratetol=1.0 / qcomp=0.65 / qpmin=10 / qpmax=69 / qpstep=4 / cplxblur=20.0 / qblur=0.5 / ip_ratio=1.40 / pb_ratio=1.30 / aq=1:1.00
    Default : Да
    Forced : Нет
    Аудио #1
    Идентификатор : 2
    Формат : AC-3
    Формат/Информация : Audio Coding 3
    Расширение режима : CM (complete main)
    Параметр Endianness формата : Big
    Идентификатор кодека : A_AC3
    Продолжительность : 1 ч. 51 м.
    Вид битрейта : Постоянный
    Битрейт : 448 Кбит/сек
    Каналы : 6 каналов
    Расположение каналов : Front: L C R, Side: L R, LFE
    Частота : 48,0 КГц
    Битовая глубина : 16 бит
    Метод сжатия : С потерями
    Размер потока : 359 Мбайт (16%)
    Заголовок : Русский, дублированный
    Язык : Russian
    Default : Да
    Forced : Нет
    Аудио #2
    Идентификатор : 3
    Формат : AC-3
    Формат/Информация : Audio Coding 3
    Расширение режима : CM (complete main)
    Параметр Endianness формата : Big
    Идентификатор кодека : A_AC3
    Продолжительность : 1 ч. 51 м.
    Вид битрейта : Постоянный
    Битрейт : 448 Кбит/сек
    Каналы : 6 каналов
    Расположение каналов : Front: L C R, Side: L R, LFE
    Частота : 48,0 КГц
    Битовая глубина : 16 бит
    Метод сжатия : С потерями
    Размер потока : 359 Мбайт (16%)
    Заголовок : Английский
    Язык : English
    Default : Нет
    Forced : Нет
    Текст
    Идентификатор : 4
    Формат : UTF-8
    Идентификатор кодека : S_TEXT/UTF8
    Идентификатор кодека/Информация : UTF-8 Plain Text
    Заголовок : Английские
    Язык : English
    Default : Нет
    Forced : Нет
    Меню
    00:00:00.000 : en:00:00:00.000
    00:05:06.848 : en:00:05:06.848
    00:07:20.940 : en:00:07:20.940
    00:12:12.440 : en:00:12:12.440
    00:17:00.728 : en:00:17:00.728
    00:23:12.266 : en:00:23:12.266
    00:30:37.461 : en:00:30:37.461
    00:37:39.174 : en:00:37:39.174
    00:44:31.460 : en:00:44:31.460
    00:52:00.701 : en:00:52:00.701
    00:58:05.315 : en:00:58:05.315
    01:03:04.072 : en:01:03:04.072
    01:08:08.584 : en:01:08:08.584
    01:13:03.838 : en:01:13:03.838
    01:19:26.512 : en:01:19:26.512
    01:24:16.885 : en:01:24:16.885
    01:30:09.446 : en:01:30:09.446
    01:35:08.369 : en:01:35:08.369
    01:40:55.383 : en:01:40:55.383
    01:45:00.419 : en:01:45:00.419

    Скриншот c названием фильма

    Скриншоты

    Возраст

    18+ - зрителям, достигшим 18 лет

    Рейтинг МРАА

    R - лицам до 17 лет обязательно присутствие взрослого
    Скачать .torrent

    Скачать торрент-файл бесплатно и на максимальной скорости!

    Как скачивать? · Что такое торрент? · Рейтинг и ограничения

    !ВНИМАНИЕ!
    Сайт не распространяет и не хранит электронные версии произведений, а занимается лишь лишь предоставлением доступа к создаваемому пользователями каталогу ссылок на торрент-файлы, которые содержат только списки хеш-сумм, убедительная просьба с жалобами обращаться напрямую к пользователю. Файлы для обмена на трекере предоставлены пользователями сайта, и администрация не несёт ответственности за их содержание. Просьба не заливать файлы, защищенные авторскими правами, а также файлы нелегального содержания!


    _________________
    [Профиль] [ЛС]
    Показать сообщения:    
    Ответить на тему

    Текущее время: Сегодня, в 06:53

    Часовой пояс: GMT + 2



    Вы не можете начинать темы
    Вы не можете отвечать на сообщения
    Вы не можете редактировать свои сообщения
    Вы не можете удалять свои сообщения
    Вы не можете голосовать в опросах
    Вы не можете прикреплять файлы к сообщениям
    Вы не можете скачивать файлы