BitTorrentTracker PerecTracker.org
BitTorrentTracker PerecTracker.org
    
Регистрация  ·  Вход
 
 · 
Забыли пароль?

  • Все еще Элис / Still Alice (Ричард Глацер / Richard Glatzer, Уош Уэстмоленд / Wash Westmoreland) [2014 г., США, Франция, драма, BDRip] MVO + Original Eng + Sub (Rus, Eng)

    Ответить на тему
     
    Автор Сообщение

    Light

    Создавать темы 01-Июн-2015 10:42

           

    [Цитировать]

    -Все еще Элис / Still AliceСтрана: США, Франция
    Студия: Big Indie Pictures, BSM Studio, Killer Films, Lutzus-Brown, Shriver Films
    Жанр: драма
    Год выпуска: 2014
    Продолжительность: 01:41:15-Перевод: Профессиональный (многоголосый, закадровый) BD EUR
    Оригинальная аудиодорожка: английская
    Cубтитры: русские, английские
    Режиссер: Ричард Глацер / Richard Glatzer, Уош Уэстмоленд / Wash Westmoreland
    В ролях: Джулианна Мур, Алек Болдуин, Кристен Стюарт, Кейт Босворт, Шэйн МакРей, Хантер Пэрриш, Сет Гиллиам, Стефан Канкен, Эрин Дрэйк, Дэниэл Джерролл
    Описание: Элис Хаулэнд – известный профессор лингвистики. Она счастлива в браке, у нее трое взрослых детей. Но все меняется, когда однажды она начинает забывать слова…-
    Сэмпл: скачать-Релиз от -
    Автор рипа: Elheym
    Качество: BDRip (источник: / Blu-ray EUR [STILL_ALICE_HDCLUB] / 1080p)
    Контейнер: AVI
    Видео: 704x384 (1.83:1), 23.976 fps, XviD build 65 ~2182 kbps avg, 0.34 bit/pixel
    Аудио #1: Русский: AC3, 5.1, 48 kHz, ~448 Кбит/с | Профессиональный (многоголосый, закадровый) BD EUR |
    Аудио #2: Английский: AC3, 5.1, 48 kHz, ~448 Кбит/с | Оригинал |
    Субтитры: русские (полные), английские (полные)
    Размер: 2234.19 Mb (1/2 DVD)

    MediaInfo

    Полное имя : Vse.esche.Elis.2014.DUAL.BDRip.XviD.AC3.-HQCLUB.avi
    Формат : AVI
    Формат/Информация : Audio Video Interleave
    Профиль формата : OpenDML
    Размер файла : 2,18 Гбайт
    Продолжительность : 1 ч. 41 м.
    Общий поток : 3085 Кбит/сек
    Название фильма : Всё ещё Элис / Still Alice (2014) BDRip
    Режиссёр : Elheym
    Программа кодирования : VirtualDubMod 1.5.10.2 (build 2540/release)
    Авторское право : HQCLUB
    Примечание : 30.05.2015
    Видео
    Идентификатор : 0
    Формат : MPEG-4 Visual
    Профиль формата : Advanced Simple@L5
    Параметр BVOP формата : 1
    Параметр QPel формата : Нет
    Параметр GMC формата : Без точки перехода
    Параметр матрицы формата : Выборочная
    Идентификатор кодека : XVID
    Идентификатор кодека/Подсказка : XviD
    Продолжительность : 1 ч. 41 м.
    Битрейт : 2171 Кбит/сек
    Ширина : 704 пикселя
    Высота : 384 пикселя
    Соотношение сторон : 1,85:1
    Частота кадров : 23,976 кадра/сек
    Цветовое пространство : YUV
    Субдискретизация насыщенности : 4:2:0
    Битовая глубина : 8 бит
    Тип развёртки : Прогрессивная
    Метод сжатия : С потерями
    Бит/(Пиксели*Кадры) : 0.335
    Размер потока : 1,54 Гбайт (70%)
    Библиотека кодирования : XviD 65
    Аудио #1
    Идентификатор : 1
    Формат : AC-3
    Формат/Информация : Audio Coding 3
    Расширение режима : CM (complete main)
    Параметр Endianness формата : Big
    Идентификатор кодека : 2000
    Продолжительность : 1 ч. 41 м.
    Вид битрейта : Постоянный
    Битрейт : 448 Кбит/сек
    Каналы : 6 каналов
    Расположение каналов : Front: L C R, Side: L R, LFE
    Частота : 48,0 КГц
    Метод сжатия : С потерями
    Размер потока : 324 Мбайт (15%)
    Выравнивание : Разделение по промежуткам
    Продолжительность промежутка : 42 мс. (1,00 видеокадр)
    Время предзагрузки промежутка : 500 мс.
    Аудио #2
    Идентификатор : 2
    Формат : AC-3
    Формат/Информация : Audio Coding 3
    Расширение режима : CM (complete main)
    Параметр Endianness формата : Big
    Идентификатор кодека : 2000
    Продолжительность : 1 ч. 41 м.
    Вид битрейта : Постоянный
    Битрейт : 448 Кбит/сек
    Каналы : 6 каналов
    Расположение каналов : Front: L C R, Side: L R, LFE
    Частота : 48,0 КГц
    Метод сжатия : С потерями
    Размер потока : 324 Мбайт (15%)
    Выравнивание : Разделение по промежуткам
    Продолжительность промежутка : 42 мс. (1,00 видеокадр)
    Время предзагрузки промежутка : 500 мс.

    Скриншоты

    Скачать .torrent

    Скачать торрент-файл бесплатно и на максимальной скорости!

    Как скачивать? · Что такое торрент? · Рейтинг и ограничения

    !ВНИМАНИЕ!
    Сайт не распространяет и не хранит электронные версии произведений, а занимается лишь лишь предоставлением доступа к создаваемому пользователями каталогу ссылок на торрент-файлы, которые содержат только списки хеш-сумм, убедительная просьба с жалобами обращаться напрямую к пользователю. Файлы для обмена на трекере предоставлены пользователями сайта, и администрация не несёт ответственности за их содержание. Просьба не заливать файлы, защищенные авторскими правами, а также файлы нелегального содержания!


    _________________
    [Профиль] [ЛС]
    Показать сообщения:    
    Ответить на тему

    Текущее время: Сегодня, в 06:13

    Часовой пояс: GMT + 2



    Вы не можете начинать темы
    Вы не можете отвечать на сообщения
    Вы не можете редактировать свои сообщения
    Вы не можете удалять свои сообщения
    Вы не можете голосовать в опросах
    Вы не можете прикреплять файлы к сообщениям
    Вы не можете скачивать файлы