BitTorrentTracker PerecTracker.org
BitTorrentTracker PerecTracker.org
    
Регистрация  ·  Вход
 
 · 
Забыли пароль?

  • Герцог Бургундии / The Duke of Burgundy (Питер Стриклэнд / Peter Strickland) [2014, Великобритания, психологическая драма, БДСМ, HDRip] VO (PashaUP) + Sub Rus, Eng + Original Eng

    Ответить на тему
     
    Автор Сообщение

    Light

    Создавать темы 01-Июн-2015 10:42

           

    [Цитировать]

    Герцог Бургундии / The Duke of Burgundy
    Страна: Великобритания
    Жанр: психологическая драма, БДСМ
    Год выпуска: 2014
    Продолжительность: 01:44:24
    Перевод: Любительский одноголосый (PashaUP)
    Cубтитры: русские (Skuf), английские
    Оригинальная аудиодорожка: английский
    Режиссер: Питер Стриклэнд / Peter Strickland
    В ролях: Сидсе Бабетт Кнудсен, Кьяра Д’Анна, Моника Свинн, Евгения Карузо, Фатма Мохамед, Ката Барч
    Описание:
    1. Женщина, которая изучает бабочек и мотыльков, решает испытать терпимость своей любовницы.
    2. День за днем зажиточная женщина Синтия награждает и наказывает свою служанку Эвелин. В то время как Синтия стремится к более традиционным отношениям, одержимость Эвелин эротикой быстро становится пагубным пристрастием, которое способно разрушить отношения.
    Сэмпл: http://multi-up.com/1051424
    Качество видео: HDRip
    Формат видео: AVI
    Видео: 720x304 (2.37:1), 24.000 fps, XviD build 73 ~1546 kbps avg, 0.29 bit/pixel
    Аудио 1: 48 kHz, AC3 Dolby Digital, 3/2 (L,C,R,l,r) + LFE ch, ~448.00 kbps avg
    Аудио 2: 48 kHz, AC3 Dolby Digital, 3/2 (L,C,R,l,r) + LFE ch, ~448.00 kbps avg
    Формат субтитров: softsub (SRT)

    Пример субтитров

    21
    00:04:39,833 --> 00:04:41,707
    Разве я разрешила сесть?
    22
    00:04:45,833 --> 00:04:48,457
    Можешь начать с уборки моего рабочего места.
    23
    00:05:10,500 --> 00:05:12,540
    И в этот раз не растягивай уборку на целый день.
    24
    00:07:37,125 --> 00:07:39,540
    Пока ты здесь, заодно вынеси мусорное ведро.
    25
    00:07:57,291 --> 00:07:59,207
    Привет, Лорна.
    26
    00:08:24,750 --> 00:08:26,790
    Ты куда собралась?
    27
    00:08:27,916 --> 00:08:30,040
    Подумала, что на сегодня я закончила.
    28
    00:08:30,166 --> 00:08:32,457
    Закончишь, когда я так скажу.
    29
    00:08:32,583 --> 00:08:36,457
    - Но уже нечего делать
    - О, нужно много чего сделать.
    30
    00:08:36,583 --> 00:08:38,790
    Можешь начать с массажа моих ног.
    31
    00:09:31,625 --> 00:09:33,457
    Можно в туалет?
    32
    00:09:34,083 --> 00:09:35,332
    Нет.
    33
    00:09:36,541 --> 00:09:38,582
    Но я...
    34
    00:09:38,708 --> 00:09:41,749
    Думаю, будет лучше, если ты останешься у моих ног
    35
    00:09:41,875 --> 00:09:44,707
    и продолжишь делать то, о чем я тебя попросила.
    36
    00:12:02,000 --> 00:12:03,332
    Заходи.
    37
    00:12:13,541 --> 00:12:15,665
    Я закончила подметать крыльцо.
    38
    00:12:15,791 --> 00:12:18,582
    - Теперь можно идти?
    - Ты постирала мои вещи?
    39
    00:12:19,875 --> 00:12:22,665
    - Какие вещи?
    - Ты постоянно забываешь.
    40
    00:12:23,333 --> 00:12:25,665
    Я оставила тебе целую кучу.
    41
    00:12:25,791 --> 00:12:29,790
    Хорошо, но вы покажете мне, как пользоваться стиральной машиной?
    42
    00:12:29,916 --> 00:12:32,374
    Ты не будешь ей пользоваться.
    43
    00:13:48,500 --> 00:13:51,290
    - Все сделано.
    - Ты прополоскала вещи от мыла?

    MediaInfo

    Общее
    Полное имя : G:\MINE\The Duke of Burgundy (2014) - HDRip\The Duke of Burgundy (2014) - VO, Eng - HDRip\The Duke of Burgundy (2014) - VO, Eng - HDRip.avi
    Формат : AVI
    Формат/Информация : Audio Video Interleave
    Размер файла : 1,79 Гбайт
    Продолжительность : 1 ч. 44 м.
    Общий поток : 2457 Кбит/сек
    Программа кодирования : VirtualDubMod 1.5.10.3 (build 2550/release)
    Библиотека кодирования : VirtualDubMod build 2550/release
    Видео
    Идентификатор : 0
    Формат : MPEG-4 Visual
    Профиль формата : Advanced Simple@L5
    Параметр BVOP формата : 1
    Параметр QPel формата : Нет
    Параметр GMC формата : Без точки перехода
    Параметр матрицы формата : Выборочная
    Идентификатор кодека : XVID
    Идентификатор кодека/Подсказка : XviD
    Продолжительность : 1 ч. 44 м.
    Битрейт : 1547 Кбит/сек
    Ширина : 720 пикселей
    Высота : 304 пикселя
    Соотношение сторон : 2,35:1
    Частота кадров : 24,000 кадра/сек
    Цветовое пространство : YUV
    Субдискретизация насыщенности : 4:2:0
    Битовая глубина : 8 бит
    Тип развёртки : Прогрессивная
    Метод сжатия : С потерями
    Бит/(Пиксели*Кадры) : 0.294
    Размер потока : 1,13 Гбайт (63%)
    Библиотека кодирования : XviD 73
    Аудио #1
    Идентификатор : 1
    Формат : AC-3
    Формат/Информация : Audio Coding 3
    Расширение режима : CM (complete main)
    Параметр Endianness формата : Big
    Идентификатор кодека : 2000
    Продолжительность : 1 ч. 44 м.
    Вид битрейта : Постоянный
    Битрейт : 448 Кбит/сек
    Каналы : 6 каналов
    Расположение каналов : Front: L C R, Side: L R, LFE
    Частота : 48,0 КГц
    Битовая глубина : 16 бит
    Метод сжатия : С потерями
    Размер потока : 335 Мбайт (18%)
    Выравнивание : Разделение по промежуткам
    Продолжительность промежутка : 42 мс. (1,00 видеокадр)
    Время предзагрузки промежутка : 500 мс.
    Аудио #2
    Идентификатор : 2
    Формат : AC-3
    Формат/Информация : Audio Coding 3
    Расширение режима : CM (complete main)
    Параметр Endianness формата : Big
    Идентификатор кодека : 2000
    Продолжительность : 1 ч. 44 м.
    Вид битрейта : Постоянный
    Битрейт : 448 Кбит/сек
    Каналы : 6 каналов
    Расположение каналов : Front: L C R, Side: L R, LFE
    Частота : 48,0 КГц
    Битовая глубина : 16 бит
    Метод сжатия : С потерями
    Размер потока : 335 Мбайт (18%)
    Выравнивание : Разделение по промежуткам
    Продолжительность промежутка : 42 мс. (1,00 видеокадр)
    Время предзагрузки промежутка : 500 мс.

    Скриншоты

    Файл перезалит. Добавлена русская озвучка и английские субтитры.
    Скачать .torrent

    Скачать торрент-файл бесплатно и на максимальной скорости!

    Как скачивать? · Что такое торрент? · Рейтинг и ограничения

    !ВНИМАНИЕ!
    Сайт не распространяет и не хранит электронные версии произведений, а занимается лишь лишь предоставлением доступа к создаваемому пользователями каталогу ссылок на торрент-файлы, которые содержат только списки хеш-сумм, убедительная просьба с жалобами обращаться напрямую к пользователю. Файлы для обмена на трекере предоставлены пользователями сайта, и администрация не несёт ответственности за их содержание. Просьба не заливать файлы, защищенные авторскими правами, а также файлы нелегального содержания!


    _________________
    [Профиль] [ЛС]
    Показать сообщения:    
    Ответить на тему

    Текущее время: Сегодня, в 14:51

    Часовой пояс: GMT + 2



    Вы не можете начинать темы
    Вы не можете отвечать на сообщения
    Вы не можете редактировать свои сообщения
    Вы не можете удалять свои сообщения
    Вы не можете голосовать в опросах
    Вы не можете прикреплять файлы к сообщениям
    Вы не можете скачивать файлы