BitTorrentTracker PerecTracker.org
BitTorrentTracker PerecTracker.org
    
Регистрация  ·  Вход
 
 · 
Забыли пароль?

  • Кто придумал колесо? (Владимир Шредель) [1966, Лирическая комедия, VHSRip]

    Ответить на тему
     
    Автор Сообщение

    Light

    Создавать темы 31-Май-2015 22:06

           

    [Цитировать]

    Кто придумал колесо?

    Страна: СССР
    Производство: Ленфильм

    Жанр: Лирическая комедия
    Год выпуска: 1966
    Продолжительность: 01:25:47

    Режиссёр: Владимир Шредель
    В ролях: Георгий Корольчук, Георгий Вицин, Наталья Селезнёва, Михаил Глузский, Георгий Штиль, Галина Никулина, Виктор Костецкий, Николай Волков (старший), Наталья Гурзо, Борис Рыжухин, Полина Куманченко
    Описание: По мотивам повести В.Краковского «Возвращение к горизонту». Окончив школу, Сева Лосев устраивается на химкомбинат. Лирический фильм о первых опытах самостоятельной жизни и первой любви.
    Доп. информация: Релиз:, рип vova68
    Семпл: http://multi-up.com/1050914
    Качество видео: VHSRip
    Формат видео: AVI

    Видео: 672x288 (2.33:1), 25 fps, XviD MPEG-4 ~2279 kbps avg, 0.47 bit/pixel
    Аудио: 48 kHz, MPEG Layer 3, 2 ch, ~128.00 kbps avg

    MediaInfo

    Общее
    Полное имя : D:\Кто придумал колесо1966.avi
    Формат : AVI
    Формат/Информация : Audio Video Interleave
    Размер файла : 1,45 Гбайт
    Продолжительность : 1 ч. 25 м.
    Общий поток : 2417 Кбит/сек
    Программа кодирования : VirtualDubModRus 1.5.10.2 (build 2540/release)
    Библиотека кодирования : VirtualDubMod build 2540/release
    Видео
    Идентификатор : 0
    Формат : MPEG-4 Visual
    Профиль формата : Advanced Simple@L5
    Параметр BVOP формата : 1
    Параметр QPel формата : Нет
    Параметр GMC формата : Без точки перехода
    Параметр матрицы формата : Default (H.263)
    Режим смешивания : Сжатый битовый поток
    Идентификатор кодека : XVID
    Идентификатор кодека/Подсказка : XviD
    Продолжительность : 1 ч. 25 м.
    Битрейт : 2280 Кбит/сек
    Ширина : 672 пикселя
    Высота : 288 пикселей
    Соотношение сторон : 2,35:1
    Частота кадров : 25,000 кадров/сек
    Цветовое пространство : YUV
    Субдискретизация насыщенности : 4:2:0
    Битовая глубина : 8 бит
    Тип развёртки : Прогрессивная
    Метод сжатия : С потерями
    Бит/(Пиксели*Кадры) : 0.471
    Размер потока : 1,37 Гбайт (94%)
    Библиотека кодирования : XviD 1.1.0 (UTC 2005-11-22)
    Аудио
    Идентификатор : 1
    Формат : MPEG Audio
    Версия формата : Version 1
    Профиль формата : Layer 3
    Режим : Joint stereo
    Расширение режима : MS Stereo
    Идентификатор кодека : 55
    Идентификатор кодека/Подсказка : MP3
    Продолжительность : 1 ч. 25 м.
    Вид битрейта : Постоянный
    Битрейт : 128 Кбит/сек
    Каналы : 2 канала
    Частота : 48,0 КГц
    Метод сжатия : С потерями
    Размер потока : 78,5 Мбайт (5%)
    Выравнивание : Соединение по промежуткам
    Продолжительность промежутка : 40 мс. (1,00 видеокадр)
    Время предзагрузки промежутка : 504 мс.
    Библиотека кодирования : LAME3.97 (beta)

    Скриншоты

    Скачать .torrent

    Скачать торрент-файл бесплатно и на максимальной скорости!

    Как скачивать? · Что такое торрент? · Рейтинг и ограничения

    !ВНИМАНИЕ!
    Сайт не распространяет и не хранит электронные версии произведений, а занимается лишь лишь предоставлением доступа к создаваемому пользователями каталогу ссылок на торрент-файлы, которые содержат только списки хеш-сумм, убедительная просьба с жалобами обращаться напрямую к пользователю. Файлы для обмена на трекере предоставлены пользователями сайта, и администрация не несёт ответственности за их содержание. Просьба не заливать файлы, защищенные авторскими правами, а также файлы нелегального содержания!


    _________________
    [Профиль] [ЛС]
    Показать сообщения:    
    Ответить на тему

    Текущее время: Сегодня, в 12:22

    Часовой пояс: GMT + 2



    Вы не можете начинать темы
    Вы не можете отвечать на сообщения
    Вы не можете редактировать свои сообщения
    Вы не можете удалять свои сообщения
    Вы не можете голосовать в опросах
    Вы не можете прикреплять файлы к сообщениям
    Вы не можете скачивать файлы