BitTorrentTracker PerecTracker.org
BitTorrentTracker PerecTracker.org
    
Регистрация  ·  Вход
 
 · 
Забыли пароль?

  • Охота на слонов / Hunting Elephants / Latsud pilim (Решеф Леви / Reshef Levi) [2013, Израиль, США, комедия, криминал, DVDRip] Sub Rus, Eng + Original Heb

    Ответить на тему
     
    Автор Сообщение

    Light

    Создавать темы 31-Май-2015 22:06

           

    [Цитировать]

    Охота на слонов / Hunting Elephants / Latsud pilim
    Страна: Израиль, США
    Жанр: комедия, криминал
    Год выпуска: 2013
    Продолжительность: 01:43:20
    Перевод: Субтитры
    Cубтитры: русские, английские
    Оригинальная аудиодорожка: иврит, английский
    Режиссер: Решеф Леви / Reshef Levi
    В ролях: Сэссон Габаи, Мони Мошонов, Патрик Стюарт, Джиль Блэнк, Яэль Абекассис, Моше Ивги, Звика Хадар, Ротем Зуссман-Коэн, Мейрав Коперберг, Тиква Дайан
    Описание: 12-летний Йонатан невольно становится причиной гибели своего отца, охранника банка, который внезапно умирает на работе от сердечного приступа. Банк отказывается выплачивать страховку и пенсию семье умершего. Чтобы отомстить банку и получить причитающееся, Йонатан готовит дерзкий план ограбления банка, к осуществлению которого привлекает трёх стариков - своего деда, его друга и английского дядю-лорда.
    Доп. информация: 7 номинаций Израильской киноакадемии (2013).
    ,
    Сэмпл: http://www.mediafire.com/watch/uzb7b92lwxl73ei/Samp...ng_Elephants.avi
    Качество видео: DVDRip
    Формат видео: AVI
    Видео: XviD 704х400 16:9 25 кадров/сек 1552 Кбит/сек
    Аудио: AC-3 48 КГц 2 канала 192 Кбит/сек
    Формат субтитров: softsub (SRT)

    Образец субтитров

    4
    00:01:21,055 --> 00:01:22,374
    Повернитесь направо.
    5
    00:01:24,615 --> 00:01:27,083
    Не касайтесь друг друга.
    6
    00:01:27,215 --> 00:01:28,648
    Он не понимает иврит.
    7
    00:01:28,775 --> 00:01:30,891
    Он - англичанин и у него маразм.
    8
    00:01:31,015 --> 00:01:32,004
    - Маразм?
    - Маразм.
    9
    00:01:32,135 --> 00:01:34,444
    Маразм? Да у меня маразм.
    10
    00:01:35,495 --> 00:01:40,330
    О, старость, ужасное чудовище,
    пожирающее разум!
    11
    00:01:40,455 --> 00:01:41,604
    Где моя молодость?
    12
    00:01:42,015 --> 00:01:43,846
    Где моя молодость?
    13
    00:01:44,375 --> 00:01:46,605
    Он - актёр. Талант!
    14
    00:01:47,455 --> 00:01:49,252
    Аплодисменты актёру.
    15
    00:01:49,415 --> 00:01:52,293
    Ник, берегись, я предупреждаю тебя.
    16
    00:01:52,415 --> 00:01:55,293
    Заткнись, слышишь?
    Ты нарушаешь мне всю процедуру.
    17
    00:01:55,975 --> 00:01:57,966
    Полиция уже провела процедуру
    первого опознания.
    18
    00:01:58,135 --> 00:01:59,204
    Это было удивительно.
    19
    00:01:59,455 --> 00:02:00,854
    Знаете, они были такими старыми,
    20
    00:02:00,975 --> 00:02:03,489
    что пришлось освободить всех
    сразу, после первого же допроса,
    21
    00:02:03,615 --> 00:02:06,846
    потому что они были записаны на приёмы
    к врачам, которые не возможно было отменить.
    22
    00:02:07,935 --> 00:02:10,369
    Капитан Данино, я узнаю двоих из них.
    23
    00:02:10,775 --> 00:02:14,211
    Был ещё мальчик 12 лет, Йонатан.

    MediaInfo

    Общее
    Полное имя : Hunting Elephants.avi
    Формат : AVI
    Формат/Информация : Audio Video Interleave
    Размер файла : 1,41 Гбайт
    Продолжительность : 1 ч. 43 м.
    Общий поток : 1950 Кбит/сек
    Программа кодирования : VirtualDubMod 1.5.10.2 (build 2540/release)
    Библиотека кодирования : VirtualDubMod build 2540/release
    Видео
    Идентификатор : 0
    Формат : MPEG-4 Visual
    Профиль формата : Advanced Simple@L5
    Параметр BVOP формата : 2
    Параметр QPel формата : Нет
    Параметр GMC формата : Без точки перехода
    Параметр матрицы формата : Default (H.263)
    Режим смешивания : Сжатый битовый поток
    Идентификатор кодека : XVID
    Идентификатор кодека/Подсказка : XviD
    Продолжительность : 1 ч. 43 м.
    Битрейт : 1552 Кбит/сек
    Ширина : 704 пикселя
    Высота : 400 пикселей
    Соотношение сторон : 16:9
    Частота кадров : 25,000 кадров/сек
    Цветовое пространство : YUV
    Субдискретизация насыщенности : 4:2:0
    Битовая глубина : 8 бит
    Тип развёртки : Прогрессивная
    Метод сжатия : С потерями
    Бит/(Пиксели*Кадры) : 0.220
    Размер потока : 1,12 Гбайт (80%)
    Библиотека кодирования : XviD 1.2.1 (UTC 2008-12-04)
    Аудио
    Идентификатор : 1
    Формат : AC-3
    Формат/Информация : Audio Coding 3
    Расширение режима : CM (complete main)
    Параметр Endianness формата : Big
    Идентификатор кодека : 2000
    Продолжительность : 1 ч. 43 м.
    Вид битрейта : Постоянный
    Битрейт : 192 Кбит/сек
    Каналы : 2 канала
    Расположение каналов : Front: L R
    Частота : 48,0 КГц
    Битовая глубина : 16 бит
    Метод сжатия : С потерями
    Размер потока : 142 Мбайт (10%)
    Выравнивание : Разделение по промежуткам
    Продолжительность промежутка : 40 мс. (1,00 видеокадр)
    Время предзагрузки промежутка : 500 мс.

    Скриншот c названием фильма

    Скриншоты




    Скачать .torrent

    Скачать торрент-файл бесплатно и на максимальной скорости!

    Как скачивать? · Что такое торрент? · Рейтинг и ограничения

    !ВНИМАНИЕ!
    Сайт не распространяет и не хранит электронные версии произведений, а занимается лишь лишь предоставлением доступа к создаваемому пользователями каталогу ссылок на торрент-файлы, которые содержат только списки хеш-сумм, убедительная просьба с жалобами обращаться напрямую к пользователю. Файлы для обмена на трекере предоставлены пользователями сайта, и администрация не несёт ответственности за их содержание. Просьба не заливать файлы, защищенные авторскими правами, а также файлы нелегального содержания!


    _________________
    [Профиль] [ЛС]
    Показать сообщения:    
    Ответить на тему

    Текущее время: Сегодня, в 22:19

    Часовой пояс: GMT + 2



    Вы не можете начинать темы
    Вы не можете отвечать на сообщения
    Вы не можете редактировать свои сообщения
    Вы не можете удалять свои сообщения
    Вы не можете голосовать в опросах
    Вы не можете прикреплять файлы к сообщениям
    Вы не можете скачивать файлы