Register  ·  Log in
Forgot password?

  • Интерстеллар / Interstellar (Кристофер Нолан / Christopher Nolan) [2014, США, Фантастика, драма, приключения, BDRip] [IMAX Edition] Dub

    Reply to topic
    Author Message


    Post 31-May-2015 23:06



    Интерстеллар / Interstellar
    Следующий шаг человечества станет величайшим»
    -Год выпуска: 2014
    Выпущено: США, Великобритания, Канада / Warner Bros. Pictures
    Жанр: фантастика, драма, приключения
    Продолжительность: 02:49:03
    Перевод: Профессиональный (полное дублирование)
    Cубтитры: нет-Режиссёр:
    Кристофер Нолан / Christopher Nolan-В ролях:
    Мэттью МакКонахи (Cooper), Энн Хэтэуэй (Brand), Джессика Честейн (Murph), Маккензи Фой (Murph (10 Yrs.)), Майкл Кейн (Professor Brand), Дэвид Гяси (Romilly), Уэс Бентли (Doyle), Кейси Аффлек (Tom), Джон Литгоу (Donald), Мэтт Дэймон (Mann), Тофер Грейс (Getty), Эллен Бёрстин (Murph (older))-Описание:
    Когда засуха приводит человечество к продовольственному кризису, коллектив исследователей и учёных отправляется сквозь червоточину (которая предположительно соединяет области пространства-времени через большое расстояние) в путешествие, чтобы превзойти прежние ограничения для космических путешествий человека и переселить человечество на другую планету.-Релиз групп
    | | IMDB | КиноПоиск | Сэмпл |-Качество: BDRip [Blu-ray CEE | 1080p | HDCLUB]
    Формат: AVI
    Видео: 656x368 (1.78:1), 23.976 fps, XviD build 73 ~1101 kbps avg, 0.19 bit/pixel
    Аудио: 48 kHz, MPEG Layer 3, 2 ch, ~128.00 kbps avg-



    Complete name                            : D:\Interstellar_2014_BDRip_[IMAX]_by_Dalemake.avi
    Format                                   : AVI
    Format/Info                              : Audio Video Interleave
    File size                                : 1.46 GiB
    Duration                                 : 2h 49mn
    Overall bit rate                         : 1 239 Kbps
    Writing application                      : VirtualDubMod | || (build 2550/release)
    Writing library                          : VirtualDubMod build 2550/release
    ID                                       : 0
    Format                                   : MPEG-4 Visual
    Format profile                           : Advanced Simple@L5
    Format settings, BVOP                    : 1
    Format settings, QPel                    : No
    Format settings, GMC                     : No warppoints
    Format settings, Matrix                  : Custom
    Codec ID                                 : XVID
    Codec ID/Hint                            : XviD
    Duration                                 : 2h 49mn
    Bit rate                                 : 1 102 Kbps
    Width                                    : 656 pixels
    Height                                   : 368 pixels
    Display aspect ratio                     : 16:9
    Frame rate                               : 23.976 fps
    Color space                              : YUV
    Chroma subsampling                       : 4:2:0
    Bit depth                                : 8 bits
    Scan type                                : Progressive
    Compression mode                         : Lossy
    Bits/(Pixel*Frame)                       : 0.190
    Stream size                              : 1.30 GiB (89%)
    Writing library                          : XviD 73
    ID                                       : 1
    Format                                   : MPEG Audio
    Format version                           : Version 1
    Format profile                           : Layer 3
    Codec ID                                 : 55
    Codec ID/Hint                            : MP3
    Duration                                 : 2h 49mn
    Bit rate mode                            : Constant
    Bit rate                                 : 128 Kbps
    Channel(s)                               : 2 channels
    Sampling rate                            : 48.0 KHz
    Compression mode                         : Lossy
    Stream size                              : 155 MiB (10%)
    Alignment                                : Aligned on interleaves
    Interleave, duration                     : 42 ms (1.00 video frame)
    Interleave, preload duration             : 504 ms
    Writing library                          : LAME3.99r
    Encoding settings                        : -m s -V 4 -q 2 -lowpass 17 -b 128
    Download .torrent

    Download free and at maximum speed!

    How to Download? · What is a torrent? · Ratings and Limitations

    The site does not extend and does not store electronic(digital) versions of products, and only gives access to a reference catalogue created by users on torrent-files which contain only lists of the hash-sums, the earnest entreaty, with complaints(abuse) to access directly to the user. Files for an exchange on tracker are given by users of a site, and the administration does not bear the responsibility for their maintenance. The request to not fill in the files protected by copyrights, and also files of the illegal maintenance!

    [Profile] [PM]
    Display posts from previous:    
    Reply to topic

    The time now is: Today 08:05

    All times are GMT + 3 Hours

    You cannot post new topics in this forum
    You cannot reply to topics in this forum
    You cannot edit your posts in this forum
    You cannot delete your posts in this forum
    You cannot vote in polls in this forum
    You cannot attach files in this forum
    You cannot download files in this forum