BitTorrentTracker PerecTracker.org
BitTorrentTracker PerecTracker.org
    
Регистрация  ·  Вход
 
 · 
Забыли пароль?

  • Экзамен на директора (Александр Ефремов) [1986, Мелодрама, SATRip]

    Ответить на тему
     
    Автор Сообщение

    Light

    Создавать темы 31-Май-2015 13:42

           

    [Цитировать]

    Экзамен на директора
    Жанр: Мелодрама
    Страна: СССР
    Год выпуска: 1986
    Продолжительность: 01:18:48
    Режиссёр: Александр Ефремов
    В ролях: Сергей Шкаликов, Михаил Глузский, Юрий Казючиц, Тамара Муженко, Галина Чурилова, Анжелика Агурбаш, Дмитрий Сахно, Валентина Титова, Стефания Станюта, Геннадий Овсянников, А. Седеневская, Мария Захаревич, Татьяна Жукова
    Описание: Главный герой фильма - Виктор Петрович, выпускник института, приехал по распределению в небольшую сельскую школу. Волей случая его сразу назначили директором. Но из-за отсутствия педагогического опыта Виктор допускает ряд ошибок, идет на поводу завуча школы и инспектора РОНО. В картине прослеживаются взаимоотношения Виктора Петровича с завучем школы Галиной Павловной - женщиной со сложной судьбой, которая пришла в школу в послевоенные годы; с молодой учительницей Ириной Алексеевной; с учениками школы.
    Доп. информация: Благодарность: исходник для данной раздачи, записан с цифрового наземного канала, т.е. DVB-Т, любезно предоставлен PavelDAS.
    За что ему большое спасибо!
    Запись потока *.ts с наземного цифрового телеканала "Беларусь 1", ремукс в *.mkv программой VideoReDo.
    Доп. информация:
    Сценаристы: Владимир Бутромеев, Евгений Митько
    Оператор: Александр Бетев
    Композитор: Петр Альхимович
    Художник: Валерий Назаров
    Производство: Беларусьфильм
    Релиз:

    Мои раздачи:

    Мои раздачи

    Все
    http://RUtracker.org/forum/tracker.php?rid=9778909
    http://BY.perectracker.org/forum/tracker.php?rid=9778909
    http://UA.perectracker.org/forum/tracker.php?rid=9778909
    Избранные:
    1) Я - гражданин Республики Беларусь. Архитектурные и художественные шедевры Беларуси [2008, RUS]
    http://perectracker.org/viewtopic.php?t=3516744
    2) Государственная политика [Документальный цикл, TVRip, 2010]
    http://perectracker.org/viewtopic.php?t=3321565
    3) Беларусь. Взгляд извне [2005, документальный сериал, TVRip]
    http://perectracker.org/viewtopic.php?t=3543820
    4) Трилогия: Белая Русь, Чарующая Беларусь, Путешествие из Беларуси в Россию [2010-2011 г., Документальный, DVD5]
    http://perectracker.org/viewtopic.php?t=3442053
    5) Правда о западной «демократии» и белорусском «тоталитаризме» [Беларусь 2011, Документальное расследование]
    http://perectracker.org/viewtopic.php?t=3523672
    6) Задорнов в Беларуси. Беларусь - это значительно улучшенный Советский Союз [2010-2011 г., Интервью, TVRip]
    http://perectracker.org/viewtopic.php?t=3512134
    7) [Журнал] Экономика Беларуси (16 номеров) [2007-2010, PDF, RUS]
    http://perectracker.org/viewtopic.php?t=3309120
    8) Армия - Журнал Вооруженных сил республики Беларусь. (81 номер) [1996-2010, PDF, RUS]
    http://perectracker.org/viewtopic.php?t=3277264
    9) Страна Моя, Беларусь! Заставка телеканал СТВ Минск. Белоруссия, Мир, Несвиж и др. zweizwei [2010, рекламный ролик, заставка, HD-Video]
    http://perectracker.org/viewtopic.php?t=3480687
    10) Радзивиллы Несвижские владения Костел Божьего тела [2011 г., хроникально-документальный, TVRip]
    http://perectracker.org/viewtopic.php?t=3410980
    11) Полёты на воздушном шаре. Новогрудок. Беларусь. zweizwei / Belarus Novogrudok [2010, HD-Video]
    http://perectracker.org/viewtopic.php?t=3380821
    12) Полёты на воздушном шаре / Беларусь, Белоруссия, Гродно, Святск. zweizwei [2009, HD-Video]
    http://perectracker.org/viewtopic.php?t=3380756
    13) Вид Гродно с высоты полета (Беларусь)/Выгляд Гродна з вышыні палёту паветранага шара [222]
    http://perectracker.org/viewtopic.php?t=3369388
    14) Анархия Прямое действие. Беларусь [2011, документальный фильм, TVRip]
    http://perectracker.org/viewtopic.php?t=3485756
    15) Психология девиации (АТН, Беларусь ТВ) [2010, Информационно-аналитические и общественно-политическиепередачи, TVRip]
    http://perectracker.org/viewtopic.php?t=3542424
    16) Боль моя - Чернобыль (Беларусь, Коллектив Беларусь ТВ) [2011, Документлный, TVRip]
    http://perectracker.org/viewtopic.php?t=3546253
    17) Попов хутор и его обитатели Русс ТВ [2011, Документальный, DVD5]
    http://perectracker.org/viewtopic.php?t=3514286
    и сотни других...
    Семпл: http://rusfolder.com/43746144
    Качество видео: SATRip
    Формат видео: AVI
    Видео: Xvid 704x528 25fps 1753kbps
    Аудио: MP3 48000Hz stereo 224kbps

    MediaInfo

    GeneralComplete name : D:\Художественные фильмы\Экзамен на директора (1986)\Экзамен на директора (1986).aviFormat : AVIFormat/Info : Audio Video InterleaveFile size : 1.09 GiBDuration : 1h 18mnOverall bit rate : 1 988 KbpsWriting application : VirtualDubMod 1.5.10.2 (build 2540/release)Writing library : VirtualDubMod build 2540/release
    VideoID : 0Format : MPEG-4 VisualFormat profile : Advanced Simple@L5Format settings, BVOP : 1Format settings, QPel : NoFormat settings, GMC : No warppointsFormat settings, Matrix : Default (H.263)Codec ID : XVIDCodec ID/Hint : XviDDuration : 1h 18mnBit rate : 1 754 KbpsWidth : 704 pixelsHeight : 528 pixelsDisplay aspect ratio : 4:3Frame rate : 25.000 fpsColor space : YUVChroma subsampling : 4:2:0Bit depth : 8 bitsScan type : ProgressiveCompression mode : LossyBits/(Pixel*Frame) : 0.189Stream size : 988 MiB (88%)Writing library : XviD 1.2.1 (UTC 2008-12-04)
    AudioID : 1Format : MPEG AudioFormat version : Version 1Format profile : Layer 3Codec ID : 55Codec ID/Hint : MP3Duration : 1h 18mnBit rate mode : ConstantBit rate : 224 KbpsChannel(s) : 2 channelsSampling rate : 48.0 KHzCompression mode : LossyStream size : 126 MiB (11%)Alignment : Aligned on interleavesInterleave, duration : 40 ms (1.00 video frame)Interleave, preload duration : 504 msWriting library : LAME3.98rEncoding settings : -m s -V 4 -q 2 -lowpass 19.4 -b 224

    Скриншоты

    Скачать .torrent

    Скачать торрент-файл бесплатно и на максимальной скорости!

    Как скачивать? · Что такое торрент? · Рейтинг и ограничения

    !ВНИМАНИЕ!
    Сайт не распространяет и не хранит электронные версии произведений, а занимается лишь лишь предоставлением доступа к создаваемому пользователями каталогу ссылок на торрент-файлы, которые содержат только списки хеш-сумм, убедительная просьба с жалобами обращаться напрямую к пользователю. Файлы для обмена на трекере предоставлены пользователями сайта, и администрация не несёт ответственности за их содержание. Просьба не заливать файлы, защищенные авторскими правами, а также файлы нелегального содержания!


    _________________
    [Профиль] [ЛС]
    Показать сообщения:    
    Ответить на тему

    Текущее время: Сегодня, в 20:22

    Часовой пояс: GMT + 2



    Вы не можете начинать темы
    Вы не можете отвечать на сообщения
    Вы не можете редактировать свои сообщения
    Вы не можете удалять свои сообщения
    Вы не можете голосовать в опросах
    Вы не можете прикреплять файлы к сообщениям
    Вы не можете скачивать файлы