BitTorrentTracker PerecTracker.org
BitTorrentTracker PerecTracker.org
    
Регистрация  ·  Вход
 
 · 
Забыли пароль?

  • Приключения мистера Пибоди и Шермана / Mr. Peabody & Sherman (Роб Минкофф / Rob Minkoff) [2014 г., мультфильм, фантастика, комедия, приключения, семейный, BDRip] DUB + AVO (Живов) + ENG + sub(rus, eng)

    Ответить на тему
     
    Автор Сообщение

    rechyn

    Создавать темы 31-Май-2015 01:06

           

    [Цитировать]

    Приключения мистера Пибоди и Шермана
    Mr. Peabody & Sherman
    «Наперегонки с историей»Страна: США
    Жанр: мультфильм, фантастика, комедия, приключения, семейный
    Продолжительность: 01:32:30
    Год выпуска: 2014-Перевод : Профессиональный (дублированный)
    Перевод : Авторский (одноголосый закадровый) Юрий Живов
    Русские субтитры: есть
    Режиссёр: Роб Минкофф / Rob Minkoff-Роли озвучивали: Антонио Бандерас, Том Кенни, Эрик Бауза, Тим Конуэй, Эдди Дизен, Роб Полсен, Кевин Майкл Ричардсон, Эйприл Стюарт, Кри Саммер, Билли Уэст-Описание: Мистер Пибоди - бизнесмен, изобретатель, ученый, нобелевский лауреат, гурман, двукратный олимпийский чемпион и гений... который кроме всего прочего является собакой. При помощи своего самого неординарного изобретения - машины ВЕЙБЕК - мистер Пибоди и его приемный сын Шерман мгновенно перемещаются в прошлое, где становятся свидетелями самых важных исторических событий и общаются с известными историческими персонажами. Но когда Шерман нарушает правила путешествий во времени, нашим героям приходится вновь отправиться в путь - на сей раз с целью восстановления цепи исторических событий и спасения будущего. Кроме того, мистеру Пибоди предстоит справиться с самой сложной для него задачей - стать настоящим отцом для Шермана...- -Качество: BDRip
    Формат: AVI
    Видео: 704x384 (1.83:1), 23.976 fps, XviD 66 ~1 808 kbps avg, 0.28 bit/pixel
    Аудио: 48 kHz, AC3 Dolby Digital, 3/2 (L,C,R,l,r) + LFE ch, ~448 kbps avg |DUB|
    Аудио: 48 kHz, AC3 Dolby Digital, 3/2 (L,C,R,l,r) + LFE ch, ~448 kbps avg |AVO~Живов| отдельно
    Аудио: 48 kHz, AC3 Dolby Digital, 3/2 (L,C,R,l,r) + LFE ch, ~448 kbps avg |ENG~Original| отдельно
    Субтитры: Russian (полные), English (Full) [srt]

    MI


    General
    Complete name : D:\incarcare\rip gata\Mr.Peabody.and.Sherman.2014.BDRip[dragomire]_perectracker.org\Mr.Peabody.and.Sherman.2014.BDRip[dragomire]_perectracker.org.avi
    Format : AVI
    Format/Info : Audio Video Interleave
    File size : 1.46 GiB
    Duration : 1h 32mn
    Overall bit rate : 2 266 Kbps
    Writing application : VirtualDubMod 1.5.10.2 (build 2540/release)
    Writing library : VirtualDubMod build 2540/release
    Video
    ID : 0
    Format : MPEG-4 Visual
    Format profile : Advanced Simple@L5
    Format settings, BVOP : 1
    Format settings, QPel : No
    Format settings, GMC : No warppoints
    Format settings, Matrix : Custom
    Codec ID : XVID
    Codec ID/Hint : XviD
    Duration : 1h 32mn
    Bit rate : 1 808 Kbps
    Width : 704 pixels
    Height : 384 pixels
    Display aspect ratio : 1.85:1
    Frame rate : 23.976 fps
    Color space : YUV
    Chroma subsampling : 4:2:0
    Bit depth : 8 bits
    Scan type : Progressive
    Compression mode : Lossy
    Bits/(Pixel*Frame) : 0.279
    Stream size : 1.17 GiB (80%)
    Writing library : XviD 66
    Audio
    ID : 1
    Format : AC-3
    Format/Info : Audio Coding 3
    Mode extension : CM (complete main)
    Format settings, Endianness : Big
    Codec ID : 2000
    Duration : 1h 32mn
    Bit rate mode : Constant
    Bit rate : 448 Kbps
    Channel(s) : 6 channels
    Channel positions : Front: L C R, Side: L R, LFE
    Sampling rate : 48.0 KHz
    Compression mode : Lossy
    Stream size : 296 MiB (20%)
    Alignment : Split accross interleaves
    Interleave, duration : 42 ms (1.00 video frame)
    Interleave, preload duratio : 500 ms

    Скриншоты


    _________________
    [Профиль] [ЛС]
    Показать сообщения:    
    Ответить на тему

    Текущее время: Сегодня, в 12:05

    Часовой пояс: GMT + 2



    Вы не можете начинать темы
    Вы не можете отвечать на сообщения
    Вы не можете редактировать свои сообщения
    Вы не можете удалять свои сообщения
    Вы не можете голосовать в опросах
    Вы не можете прикреплять файлы к сообщениям
    Вы не можете скачивать файлы