BitTorrentTracker PerecTracker.org
BitTorrentTracker PerecTracker.org
    
Регистрация  ·  Вход
 
 · 
Забыли пароль?

  • Белый башлык (Владимир Савельев) [1974, биография, исторический фильм, экранизация, VHSRip]

    Ответить на тему
     
    Автор Сообщение

    Light

    Создавать темы 30-Май-2015 12:30

           

    [Цитировать]

    Белый башлык
    Жанр: биография, исторический фильм, экранизация
    Год выпуска: 1974
    Продолжительность: 01:32:28
    Режиссёр: Владимир Савельев
    В ролях: Томас Кокоскир, Афанасий Кочетков, Нурбей Камкия, Леварсан Касландзиа, Заур Кове, Инга Гунба, Шарах Пачалиа, Сергей Пачкория, Амиран Таниа, Сергей Габниа, Этери Когониа, Владимир Шакало, Вячеслав Аблотиа, Софья Агумава, Рушни Джопуа, Алексей Ермолов, Велико Таниа, Павел Шкрёба
    Описание: По мотивам поэмы Баграта Шинкуба "Песнь о скале" о первом народном герое - Хаджарате Кяхба.
    Доп. информация: Производство: киностудия им. А.Довженко
    Премьера: 15 сентября 1975 (СССР)
    Специальный приз за сценарий (Б.Шинкуба) и постановку (В.Савельев) революционно-романтического фильма, премия за лучшее звуковое решение (В.Губа) ВКФ—75 в Кишиневе.
    Семпл: https://www.sendspace.com/file/nbdz3k
    Качество видео: VHSRip
    Формат видео: AVI
    Видео: 720x400 (1.80:1),25 fps,XviD build 50,1583 kbps avg,0.22 bit/pixel
    Аудио: 44.100 kHz,MPEG Layer 3,2 ch,128.00 kbps avg

    MediaInfo

    Общее
    Полное имя : E:\Белый Башлык.1974.avi
    Формат : AVI
    Формат/Информация : Audio Video Interleave
    Профиль формата : OpenDML
    Размер файла : 1,11 Гбайт
    Продолжительность : 1 ч. 32 м.
    Общий поток : 1719 Кбит/сек
    Программа кодирования : Lavf52.93.0
    Видео
    Идентификатор : 0
    Формат : xvid
    Идентификатор кодека : xvid
    Продолжительность : 1 ч. 32 м.
    Битрейт : 1575 Кбит/сек
    Ширина : 720 пикселей
    Высота : 400 пикселей
    Соотношение сторон : 16:9
    Частота кадров : 25,000 кадров/сек
    Бит/(Пиксели*Кадры) : 0.219
    Размер потока : 1,02 Гбайт (92%)
    Аудио
    Идентификатор : 1
    Формат : MPEG Audio
    Версия формата : Version 1
    Профиль формата : Layer 3
    Режим : Joint stereo
    Расширение режима : MS Stereo
    Идентификатор кодека : 55
    Идентификатор кодека/Подсказка : MP3
    Продолжительность : 1 ч. 32 м.
    Вид битрейта : Постоянный
    Битрейт : 128 Кбит/сек
    Каналы : 2 канала
    Частота : 44,1 КГц
    Метод сжатия : С потерями
    Размер потока : 84,7 Мбайт (7%)
    Выравнивание : Соединение по промежуткам
    Продолжительность промежутка : 26 мс. (0,65 видеокадр)
    Библиотека кодирования : LAME3.98.4

    Скриншоты

    Скачать .torrent

    Скачать торрент-файл бесплатно и на максимальной скорости!

    Как скачивать? · Что такое торрент? · Рейтинг и ограничения

    !ВНИМАНИЕ!
    Сайт не распространяет и не хранит электронные версии произведений, а занимается лишь лишь предоставлением доступа к создаваемому пользователями каталогу ссылок на торрент-файлы, которые содержат только списки хеш-сумм, убедительная просьба с жалобами обращаться напрямую к пользователю. Файлы для обмена на трекере предоставлены пользователями сайта, и администрация не несёт ответственности за их содержание. Просьба не заливать файлы, защищенные авторскими правами, а также файлы нелегального содержания!


    _________________
    [Профиль] [ЛС]
    Показать сообщения:    
    Ответить на тему

    Текущее время: Сегодня, в 04:41

    Часовой пояс: GMT + 2



    Вы не можете начинать темы
    Вы не можете отвечать на сообщения
    Вы не можете редактировать свои сообщения
    Вы не можете удалять свои сообщения
    Вы не можете голосовать в опросах
    Вы не можете прикреплять файлы к сообщениям
    Вы не можете скачивать файлы