BitTorrentTracker PerecTracker.org
BitTorrentTracker PerecTracker.org
    
Регистрация  ·  Вход
 
 · 
Забыли пароль?

  • Светофор (Владимир Васильев) [1970, Музыкальная комедия, короткометражный, DVDScreener]

    Ответить на тему
     
    Автор Сообщение

    Light

    Создавать темы 29-Май-2015 23:54

           

    [Цитировать]

    Светофор
    Страна: СССР
    Производство: Мосфильм
    Жанр: Музыкальная комедия, короткометражный
    Год выпуска: 1970
    Продолжительность: 00:10:20

    Режиссёр: Владимир Васильев
    В ролях: Евгений Моргунов, Савелий Крамаров, Юрий Белов, Татьяна Волошина, Вячеслав Гостинский, Валентин Брылеев, Анатолий Голик, Юрий Боголюбов, Леонид Куксо, Леонид Елинсон
    Описание: Социально-агитационный фильм по заказу отдела ГАИ УВД Мосгорисполкома. Показывали во всех кинотеатрах СССР перед началом сеансов.
    Доп. информация: Релиз:, рип Verba96
    Семпл: http://multi-up.com/1050927
    Качество видео: DVDScreener
    Формат видео: AVI

    Видео: 704x512 (1.38:1), 25 fps, XviD MPEG-4 ~2152 kbps avg, 0.24 bit/pixel
    Аудио: 48 kHz, MPEG Layer 3, 2 ch, ~128.00 kbps avg

    MediaInfo

    Общее
    Полное имя : D:\Светофор.avi
    Формат : AVI
    Формат/Информация : Audio Video Interleave
    Размер файла : 169 Мбайт
    Продолжительность : 10 м.
    Общий поток : 2290 Кбит/сек
    Программа кодирования : VirtualDubModRus 1.5.10.2 (build 2540/release)
    Библиотека кодирования : VirtualDubMod build 2540/release
    Видео
    Идентификатор : 0
    Формат : MPEG-4 Visual
    Профиль формата : Advanced Simple@L5
    Параметр BVOP формата : 1
    Параметр QPel формата : Нет
    Параметр GMC формата : Без точки перехода
    Параметр матрицы формата : Default (H.263)
    Режим смешивания : Сжатый битовый поток
    Идентификатор кодека : XVID
    Идентификатор кодека/Подсказка : XviD
    Продолжительность : 10 м.
    Битрейт : 2152 Кбит/сек
    Ширина : 704 пикселя
    Высота : 512 пикселей
    Соотношение сторон : 1,375
    Частота кадров : 25,000 кадров/сек
    Цветовое пространство : YUV
    Субдискретизация насыщенности : 4:2:0
    Битовая глубина : 8 бит
    Тип развёртки : Прогрессивная
    Метод сжатия : С потерями
    Бит/(Пиксели*Кадры) : 0.239
    Размер потока : 159 Мбайт (94%)
    Библиотека кодирования : XviD 1.1.0 (UTC 2005-11-22)
    Аудио
    Идентификатор : 1
    Формат : MPEG Audio
    Версия формата : Version 1
    Профиль формата : Layer 3
    Режим : Joint stereo
    Идентификатор кодека : 55
    Идентификатор кодека/Подсказка : MP3
    Продолжительность : 10 м.
    Вид битрейта : Постоянный
    Битрейт : 128 Кбит/сек
    Каналы : 2 канала
    Частота : 48,0 КГц
    Метод сжатия : С потерями
    Размер потока : 9,47 Мбайт (6%)
    Выравнивание : Соединение по промежуткам
    Продолжительность промежутка : 40 мс. (1,00 видеокадр)
    Время предзагрузки промежутка : 504 мс.
    Библиотека кодирования : LAME3.97b
    Настройки программы : -m j -V 4 -q 2 -lowpass 17 -b 128

    Скриншоты

    Скачать .torrent

    Скачать торрент-файл бесплатно и на максимальной скорости!

    Как скачивать? · Что такое торрент? · Рейтинг и ограничения

    !ВНИМАНИЕ!
    Сайт не распространяет и не хранит электронные версии произведений, а занимается лишь лишь предоставлением доступа к создаваемому пользователями каталогу ссылок на торрент-файлы, которые содержат только списки хеш-сумм, убедительная просьба с жалобами обращаться напрямую к пользователю. Файлы для обмена на трекере предоставлены пользователями сайта, и администрация не несёт ответственности за их содержание. Просьба не заливать файлы, защищенные авторскими правами, а также файлы нелегального содержания!


    _________________
    [Профиль] [ЛС]
    Показать сообщения:    
    Ответить на тему

    Текущее время: Сегодня, в 02:55

    Часовой пояс: GMT + 2



    Вы не можете начинать темы
    Вы не можете отвечать на сообщения
    Вы не можете редактировать свои сообщения
    Вы не можете удалять свои сообщения
    Вы не можете голосовать в опросах
    Вы не можете прикреплять файлы к сообщениям
    Вы не можете скачивать файлы