BitTorrentTracker PerecTracker.org
BitTorrentTracker PerecTracker.org
    
Регистрация  ·  Вход
 
 · 
Забыли пароль?

  • Каждый вечер после работы (Константин Ершов) [1973, Социальная драма, экранизация, DVB]

    Ответить на тему
     
    Автор Сообщение

    Light

    Создавать темы 29-Май-2015 19:42

           

    [Цитировать]

    Каждый вечер после работы
    Жанр: Социальная драма, экранизация
    Год выпуска: 1973
    Продолжительность: 1:10:21
    Режиссёр: Константин Ершов
    В ролях: Зинаида Славина, Александр Граве, Ирина Бунина, Николай Гринько, Ирина Губанова, Анатолий Адоскин, Валерий Бессараб, Г. Добина, Светлана Кондратова, Олег Комаров, Валентина Ивашёва, Оксана Милешкина-Смилкова, Николай Сектименко, Борис Сабуров
    Описание: В школу рабочей молодежи приходит новая учительница русского языка и литературы Елена Николаевна. Вскоре она понимает, что нельзя делать поблажек взрослым ученикам, уставшим после рабочего дня, а нужно заинтересовать их.
    Доп. информация: Производство: Киностудия им. А. Довженко
    Семпл: https://www.sendspace.com/file/5tg3yr
    Качество видео: DVB
    Формат видео: MPEG-PS
    Видео: MPEG Video , 720x576(4:3), 25,000 кадров/сек,2 993 Kbps
    Аудио: MPEG Audio, 48,0 КГц, 192 Кбит/сек, 2 канала

    MediaInfo

    Complete name Каждый вечер после работы 1973.mpg
    Format : MPEG-PS
    File size : 1.60 GiB
    Duration : 1h 10mn
    Overall bit rate mode : Variable
    Overall bit rate : 3 249 Kbps
    Video
    ID : 224 (0xE0)
    Format : MPEG Video
    Format version : Version 2
    Format profile : Main@Main
    Format settings, BVOP : Yes
    Format settings, Matrix : Default
    Format settings, GOP : M=3, N=12
    Duration : 1h 10mn
    Bit rate mode : Variable
    Bit rate : 2 993 Kbps
    Maximum bit rate : 9 500 Kbps
    Width : 720 pixels
    Height : 576 pixels
    Display aspect ratio : 4:3
    Frame rate : 25.000 fps
    Standard : PAL
    Color space : YUV
    Chroma subsampling : 4:2:0
    Bit depth : 8 bits
    Scan type : Progressive
    Compression mode : Lossy
    Bits/(Pixel*Frame) : 0.289
    Time code of first frame : 00:00:00:00
    Time code source : Group of pictures header
    GOP, Open/Closed : Open
    Stream size : 1.47 GiB (92%)
    GOP, Open/Closed of first f : Closed
    Audio
    ID : 192 (0xC0)
    Format : MPEG Audio
    Format version : Version 1
    Format profile : Layer 2
    Duration : 1h 10mn
    Bit rate mode : Constant
    Bit rate : 192 Kbps
    Channel(s) : 2 channels
    Sampling rate : 48.0 KHz
    Compression mode : Lossy
    Stream size : 96.6 MiB (6%)

    Скриншоты

    Скачать .torrent

    Скачать торрент-файл бесплатно и на максимальной скорости!

    Как скачивать? · Что такое торрент? · Рейтинг и ограничения

    !ВНИМАНИЕ!
    Сайт не распространяет и не хранит электронные версии произведений, а занимается лишь лишь предоставлением доступа к создаваемому пользователями каталогу ссылок на торрент-файлы, которые содержат только списки хеш-сумм, убедительная просьба с жалобами обращаться напрямую к пользователю. Файлы для обмена на трекере предоставлены пользователями сайта, и администрация не несёт ответственности за их содержание. Просьба не заливать файлы, защищенные авторскими правами, а также файлы нелегального содержания!


    _________________
    [Профиль] [ЛС]
    Показать сообщения:    
    Ответить на тему

    Текущее время: Сегодня, в 13:00

    Часовой пояс: GMT + 2



    Вы не можете начинать темы
    Вы не можете отвечать на сообщения
    Вы не можете редактировать свои сообщения
    Вы не можете удалять свои сообщения
    Вы не можете голосовать в опросах
    Вы не можете прикреплять файлы к сообщениям
    Вы не можете скачивать файлы