Register  ·  Log in
Forgot password?

  • Каждый вечер после работы (Константин Ершов) [1973, Социальная драма, экранизация, DVB]

    Reply to topic
    Author Message


    Post 29-May-2015 20:42



    Каждый вечер после работы
    Жанр: Социальная драма, экранизация
    Год выпуска: 1973
    Продолжительность: 1:10:21
    Режиссёр: Константин Ершов
    В ролях: Зинаида Славина, Александр Граве, Ирина Бунина, Николай Гринько, Ирина Губанова, Анатолий Адоскин, Валерий Бессараб, Г. Добина, Светлана Кондратова, Олег Комаров, Валентина Ивашёва, Оксана Милешкина-Смилкова, Николай Сектименко, Борис Сабуров
    Описание: В школу рабочей молодежи приходит новая учительница русского языка и литературы Елена Николаевна. Вскоре она понимает, что нельзя делать поблажек взрослым ученикам, уставшим после рабочего дня, а нужно заинтересовать их.
    Доп. информация: Производство: Киностудия им. А. Довженко
    Качество видео: DVB
    Формат видео: MPEG-PS
    Видео: MPEG Video , 720x576(4:3), 25,000 кадров/сек,2 993 Kbps
    Аудио: MPEG Audio, 48,0 КГц, 192 Кбит/сек, 2 канала


    Complete name Каждый вечер после работы 1973.mpg
    Format : MPEG-PS
    File size : 1.60 GiB
    Duration : 1h 10mn
    Overall bit rate mode : Variable
    Overall bit rate : 3 249 Kbps
    ID : 224 (0xE0)
    Format : MPEG Video
    Format version : Version 2
    Format profile : Main@Main
    Format settings, BVOP : Yes
    Format settings, Matrix : Default
    Format settings, GOP : M=3, N=12
    Duration : 1h 10mn
    Bit rate mode : Variable
    Bit rate : 2 993 Kbps
    Maximum bit rate : 9 500 Kbps
    Width : 720 pixels
    Height : 576 pixels
    Display aspect ratio : 4:3
    Frame rate : 25.000 fps
    Standard : PAL
    Color space : YUV
    Chroma subsampling : 4:2:0
    Bit depth : 8 bits
    Scan type : Progressive
    Compression mode : Lossy
    Bits/(Pixel*Frame) : 0.289
    Time code of first frame : 00:00:00:00
    Time code source : Group of pictures header
    GOP, Open/Closed : Open
    Stream size : 1.47 GiB (92%)
    GOP, Open/Closed of first f : Closed
    ID : 192 (0xC0)
    Format : MPEG Audio
    Format version : Version 1
    Format profile : Layer 2
    Duration : 1h 10mn
    Bit rate mode : Constant
    Bit rate : 192 Kbps
    Channel(s) : 2 channels
    Sampling rate : 48.0 KHz
    Compression mode : Lossy
    Stream size : 96.6 MiB (6%)


    Download .torrent

    Download free and at maximum speed!

    How to Download? · What is a torrent? · Ratings and Limitations

    The site does not extend and does not store electronic(digital) versions of products, and only gives access to a reference catalogue created by users on torrent-files which contain only lists of the hash-sums, the earnest entreaty, with complaints(abuse) to access directly to the user. Files for an exchange on tracker are given by users of a site, and the administration does not bear the responsibility for their maintenance. The request to not fill in the files protected by copyrights, and also files of the illegal maintenance!

    [Profile] [PM]
    Display posts from previous:    
    Reply to topic

    The time now is: Today 02:35

    All times are GMT + 3 Hours

    You cannot post new topics in this forum
    You cannot reply to topics in this forum
    You cannot edit your posts in this forum
    You cannot delete your posts in this forum
    You cannot vote in polls in this forum
    You cannot attach files in this forum
    You cannot download files in this forum