BitTorrentTracker PerecTracker.org
BitTorrentTracker PerecTracker.org
    
Регистрация  ·  Вход
 
 · 
Забыли пароль?

  • Северная рапсодия (Эдуард Абалов (Абалян)) [1974, Музыкальная комедия, DVDScreener]

    Ответить на тему
     
    Автор Сообщение

    Light

    Создавать темы 29-Май-2015 15:30

           

    [Цитировать]

    Северная рапсодия
    Страна: СССР
    Производство: Мосфильм

    Жанр: Музыкальная комедия
    Год выпуска: 1974
    Продолжительность: 01:14:23

    Режиссёр: Эдуард Абалов (Абалян)
    В ролях: Людмила Гаврилова, Леонид Куравлёв, Станислав Чекан, Людмила Великая, Евгений Моргунов, Георгий Вицин, Наталья Воробьёва, Анатолий Кубацкий, Ирина Мурзаева, Эдуард Абалов (Абалян), Нина Агапова, Зоя Василькова, Виктор Маркин, Эмилия Мильтон, Надежда Самсонова, Эммануил Геллер
    Описание: Тоня, лауреат областного конкурса, допущена к приемным экзаменам в столичный ансамбль песни и пляски. Молодой полярный летчик Ладейкин помогает девушке добраться с Крайнего Севера до Москвы и стать солисткой ансамбля...
    Доп. информация: Релиз:, рип vova68
    Семпл: http://multi-up.com/1050700
    Качество видео: DVDScreener
    Формат видео: AVI

    Видео: 720x320 (2.25:1), 25 fps, DivX Codec 5.x or 6.x ~2225 kbps avg, 0.39 bit/pixel
    Аудио: 48 kHz, MPEG Layer 3, 2 ch, ~128.00 kbps avg

    MediaInfo

    Общее
    Полное имя : D:Северная рапсодия74.avi
    Формат : AVI
    Формат/Информация : Audio Video Interleave
    Размер файла : 1,23 Гбайт
    Продолжительность : 1 ч. 14 м.
    Общий поток : 2363 Кбит/сек
    Программа кодирования : VirtualDubModRus 1.5.10.2 (build 2540/release)
    Библиотека кодирования : VirtualDubMod build 2540/release
    Видео
    Идентификатор : 0
    Формат : MPEG-4 Visual
    Параметр BVOP формата : 1
    Параметр QPel формата : Нет
    Параметр GMC формата : Без точки перехода
    Параметр матрицы формата : Default (H.263)
    Режим смешивания : Сжатый битовый поток
    Идентификатор кодека : DX50
    Идентификатор кодека/Подсказка : DivX 5
    Продолжительность : 1 ч. 14 м.
    Битрейт : 2225 Кбит/сек
    Ширина : 720 пикселей
    Высота : 320 пикселей
    Соотношение сторон : 5:4
    Соотношение сторон в оригинале : 2,25:1
    Частота кадров : 25,000 кадров/сек
    Цветовое пространство : YUV
    Субдискретизация насыщенности : 4:2:0
    Битовая глубина : 8 бит
    Тип развёртки : Прогрессивная
    Метод сжатия : С потерями
    Бит/(Пиксели*Кадры) : 0.386
    Размер потока : 1,16 Гбайт (94%)
    Библиотека кодирования : DivX 6.8.5 (UTC 2009-08-20)
    Аудио
    Идентификатор : 1
    Формат : MPEG Audio
    Версия формата : Version 1
    Профиль формата : Layer 3
    Режим : Joint stereo
    Расширение режима : MS Stereo
    Идентификатор кодека : 55
    Идентификатор кодека/Подсказка : MP3
    Продолжительность : 1 ч. 14 м.
    Вид битрейта : Постоянный
    Битрейт : 128 Кбит/сек
    Каналы : 2 канала
    Частота : 48,0 КГц
    Метод сжатия : С потерями
    Размер потока : 68,1 Мбайт (5%)
    Выравнивание : Разделение по промежуткам
    Продолжительность промежутка : 40 мс. (1,00 видеокадр)
    Время предзагрузки промежутка : 500 мс.
    Библиотека кодирования : LAME3.97ЄЄЄЄЄЄЄЄЄЄЄЄ

    Скриншоты

    Скачать .torrent

    Скачать торрент-файл бесплатно и на максимальной скорости!

    Как скачивать? · Что такое торрент? · Рейтинг и ограничения

    !ВНИМАНИЕ!
    Сайт не распространяет и не хранит электронные версии произведений, а занимается лишь лишь предоставлением доступа к создаваемому пользователями каталогу ссылок на торрент-файлы, которые содержат только списки хеш-сумм, убедительная просьба с жалобами обращаться напрямую к пользователю. Файлы для обмена на трекере предоставлены пользователями сайта, и администрация не несёт ответственности за их содержание. Просьба не заливать файлы, защищенные авторскими правами, а также файлы нелегального содержания!


    _________________
    [Профиль] [ЛС]
    Показать сообщения:    
    Ответить на тему

    Текущее время: Сегодня, в 02:00

    Часовой пояс: GMT + 2



    Вы не можете начинать темы
    Вы не можете отвечать на сообщения
    Вы не можете редактировать свои сообщения
    Вы не можете удалять свои сообщения
    Вы не можете голосовать в опросах
    Вы не можете прикреплять файлы к сообщениям
    Вы не можете скачивать файлы