BitTorrentTracker PerecTracker.org
BitTorrentTracker PerecTracker.org
    
Регистрация  ·  Вход
 
 · 
Забыли пароль?

  • Запретная территория / Wetlands / Feuchtgebiete (Дэвид Внендт / David Wnendt) [2013, Германия, комедия, драма, DVDRip] DVO (DeadSno & den904)

    Ответить на тему
     
    Автор Сообщение

    Light

    Создавать темы 29-Май-2015 02:54

           

    [Цитировать]

    Запретная территория / Wetlands / Feuchtgebiete
    Страна: Германия
    Жанр: комедия, драма
    Год выпуска: 2013
    Продолжительность: 01:49:16
    Перевод: Любительский (двухголосый закадровый) DeadSno & den904
    Cубтитры: нет
    Оригинальная аудиодорожка: нет
    Режиссер: Дэвид Внендт / David Wnendt
    В ролях: Карла Юри, Кристоф Летковски, Марлена Крузе, Мерет Беккер, Аксель Мильберг, Пери Баумейстер, Эдгар Зельге, Клара Вунш, Лудгер Бёкельман, Бернардо Ариас Поррас
    Описание: Родители Хелен разведены, и поэтому самое заветное её желание — воссоединение семьи. Однажды, получив весьма необычную травму, девушка вынуждена обратиться за помощью к врачу. Случай её настолько необычен, что героиня быстро становится настоящей сенсацией для всей больницы. Понимая, что это великолепный шанс объединить родителей у своей постели, Хелен уговаривает медбрата Робина помочь ей с исполнением хитроумного плана…
    Доп. информация: Перевод на русский язык: kon2011
    Сэмпл: http://multi-up.com/1050536
    Качество видео: DVDRip
    Формат видео: AVI
    Видео: XVID, 720x304, 24 fps, 1340 kbps
    Аудио: AC3, 6 ch, 48 kHz, 448 kpbs

    MediaInfo

    Format: AVI
    Format/Info: Audio Video Interleave
    File size: 1.37 GiB
    Duration: 1h 49mn
    Overall bit rate: 1 797 Kbps
    Writing application: VirtualDubMod 1.5.10.2 (build 2540/release)
    Writing library: VirtualDubMod build 2540/release
    Format: MPEG-4 Visual
    Format profile: Advanced Simple@L5
    Format settings, BVOP: 2
    Format settings, QPel: No
    Format settings, GMC: No warppoints
    Format settings, Matrix: Default (MPEG)
    Codec ID: XVID
    Codec ID/Hint: XviD
    Duration: 1h 49mn
    Bit rate: 1 340 Kbps
    Width: 720 pixels
    Height: 304 pixels
    Display aspect ratio: 2.35:1
    Frame rate: 24.000 fps
    Color space: YUV
    Chroma subsampling: 4:2:0
    Bit depth: 8 bits
    Scan type: Progressive
    Compression mode: Lossy
    Bits/(Pixel*Frame): 0.255
    Stream size: 1.02 GiB (75%)
    Writing library: XviD 1.2.1 (UTC 2008-12-04)
    Format: AC-3
    Format/Info: Audio Coding 3
    Mode extension: CM (complete main)
    Format settings, Endianness: Big
    Codec ID: 2000
    Duration: 1h 49mn
    Bit rate mode: Constant
    Bit rate: 448 Kbps
    Channel(s): 6 channels
    Channel positions: Front: L C R, Side: L R, LFE
    Sampling rate: 48.0 KHz
    Bit depth: 16 bits
    Compression mode: Lossy
    Stream size: 350 MiB (25%)
    Alignment: Split accross interleaves
    Interleave, duration: 42 ms (1.00 video frame)
    Interleave, preload duration: 500 ms

    Скриншот c названием фильма

    Скриншоты



    Скачать .torrent

    Скачать торрент-файл бесплатно и на максимальной скорости!

    Как скачивать? · Что такое торрент? · Рейтинг и ограничения

    !ВНИМАНИЕ!
    Сайт не распространяет и не хранит электронные версии произведений, а занимается лишь лишь предоставлением доступа к создаваемому пользователями каталогу ссылок на торрент-файлы, которые содержат только списки хеш-сумм, убедительная просьба с жалобами обращаться напрямую к пользователю. Файлы для обмена на трекере предоставлены пользователями сайта, и администрация не несёт ответственности за их содержание. Просьба не заливать файлы, защищенные авторскими правами, а также файлы нелегального содержания!


    _________________
    [Профиль] [ЛС]
    Показать сообщения:    
    Ответить на тему

    Текущее время: Сегодня, в 03:25

    Часовой пояс: GMT + 2



    Вы не можете начинать темы
    Вы не можете отвечать на сообщения
    Вы не можете редактировать свои сообщения
    Вы не можете удалять свои сообщения
    Вы не можете голосовать в опросах
    Вы не можете прикреплять файлы к сообщениям
    Вы не можете скачивать файлы