BitTorrentTracker PerecTracker.org
BitTorrentTracker PerecTracker.org
    
Регистрация  ·  Вход
 
 · 
Забыли пароль?

  • Охотник на лис / Foxcatcher (Беннетт Миллер / Bennett Miller) [2014 г., США, драма, спорт, история, BDRip] Dub + Original Eng + Sub (Rus, Eng)

    Ответить на тему
     
    Автор Сообщение

    Light

    Создавать темы 28-Май-2015 22:42

           

    [Цитировать]

    -Охотник на лис / Foxcatcher«Эта история шокировала мир»Страна: США
    Студия: Annapurna Pictures, Likely Story, Media Rights Capital
    Жанр: Драма, спорт, история
    Год выпуска: 2014
    Продолжительность: 02:14:26-Перевод: Профессиональный (полное дублирование) BD RUS
    Оригинальная аудиодорожка: английская
    Cубтитры: русские, английские
    Режиссер: Беннетт Миллер / Bennett Miller
    В ролях: Стив Карелл, Ченнинг Татум, Марк Руффало, Сиенна Миллер, Ванесса Редгрейв, Энтони Майкл Холл, Гай Бойд, Бретт Райс, Джексон Фрейзер, Самара Ли
    Описание: Мультимиллионер Джон Дюпон приглашает в свое поместье обладателя олимпийской золотой медали по борьбе Марка Шульца для подготовки команды к Олимпийским играм в Сеуле 1988 года. В надежде посвятить всего себя тренировкам, достойно выступить и выйти из тени своего брата, легендарного борца Дейва Шульца, Марк принимает предложение. Но параноик Дюпон затевает игру в кошки-мышки с Марком и Дейвом.-
    Сэмпл: скачать-Релиз от -
    Автор рипа: Elheym
    Качество: BDRip (источник: / Blu-ray Remux [FOXCATCHER_REMUX_HDCLUB] / 1080p)
    Контейнер: AVI
    Видео: 704x384 (1.83:1), 23.976 fps, XviD build 65 ~1870 kbps avg, 0.29 bit/pixel
    Аудио #1: Русский: AC3, 5.1, 48 kHz, ~448 Кбит/с | Профессиональный (полное дублирование), BD RUS |
    Аудио #2: Английский: AC3, 5.1, 48 kHz, ~448 Кбит/с | Оригинал | (отдельно)
    Субтитры: русские (полные: Janetta), английские (полные x2, SDH, SDH цветные)
    Размер: 2236.15 Mb (1/2 DVD)

    MediaInfo

    Полное имя : Ohotnik.na.lis.2014.RUS.BDRip.XviD.AC3.-HQCLUB.avi
    Формат : AVI
    Формат/Информация : Audio Video Interleave
    Профиль формата : OpenDML
    Размер файла : 2,18 Гбайт
    Продолжительность : 2 ч. 14 м.
    Общий поток : 2326 Кбит/сек
    Название фильма : Охотник на лис / Foxcatcher (2014) BDRip
    Режиссёр : Elheym
    Программа кодирования : VirtualDubMod 1.5.10.2 (build 2540/release)
    Авторское право : HQCLUB
    Примечание : 28.05.2014
    Видео
    Идентификатор : 0
    Формат : MPEG-4 Visual
    Профиль формата : Advanced Simple@L5
    Параметр BVOP формата : 1
    Параметр QPel формата : Нет
    Параметр GMC формата : Без точки перехода
    Параметр матрицы формата : Выборочная
    Идентификатор кодека : XVID
    Идентификатор кодека/Подсказка : XviD
    Продолжительность : 2 ч. 14 м.
    Битрейт : 1866 Кбит/сек
    Ширина : 704 пикселя
    Высота : 384 пикселя
    Соотношение сторон : 1,85:1
    Частота кадров : 23,976 кадра/сек
    Цветовое пространство : YUV
    Субдискретизация насыщенности : 4:2:0
    Битовая глубина : 8 бит
    Тип развёртки : Прогрессивная
    Метод сжатия : С потерями
    Бит/(Пиксели*Кадры) : 0.288
    Размер потока : 1,75 Гбайт (80%)
    Библиотека кодирования : XviD 65
    Аудио
    Идентификатор : 1
    Формат : AC-3
    Формат/Информация : Audio Coding 3
    Расширение режима : CM (complete main)
    Параметр Endianness формата : Big
    Идентификатор кодека : 2000
    Продолжительность : 2 ч. 14 м.
    Вид битрейта : Постоянный
    Битрейт : 448 Кбит/сек
    Каналы : 6 каналов
    Расположение каналов : Front: L C R, Side: L R, LFE
    Частота : 48,0 КГц
    Метод сжатия : С потерями
    Размер потока : 431 Мбайт (19%)
    Выравнивание : Разделение по промежуткам
    Продолжительность промежутка : 42 мс. (1,00 видеокадр)
    Время предзагрузки промежутка : 500 мс.

    Скриншоты

    Скачать .torrent

    Скачать торрент-файл бесплатно и на максимальной скорости!

    Как скачивать? · Что такое торрент? · Рейтинг и ограничения

    !ВНИМАНИЕ!
    Сайт не распространяет и не хранит электронные версии произведений, а занимается лишь лишь предоставлением доступа к создаваемому пользователями каталогу ссылок на торрент-файлы, которые содержат только списки хеш-сумм, убедительная просьба с жалобами обращаться напрямую к пользователю. Файлы для обмена на трекере предоставлены пользователями сайта, и администрация не несёт ответственности за их содержание. Просьба не заливать файлы, защищенные авторскими правами, а также файлы нелегального содержания!


    _________________
    [Профиль] [ЛС]
    Показать сообщения:    
    Ответить на тему

    Текущее время: Сегодня, в 11:50

    Часовой пояс: GMT + 2



    Вы не можете начинать темы
    Вы не можете отвечать на сообщения
    Вы не можете редактировать свои сообщения
    Вы не можете удалять свои сообщения
    Вы не можете голосовать в опросах
    Вы не можете прикреплять файлы к сообщениям
    Вы не можете скачивать файлы