BitTorrentTracker PerecTracker.org
BitTorrentTracker PerecTracker.org
    
Регистрация  ·  Вход
 
 · 
Забыли пароль?

  • Всё ещё Элис / Still Alice (Ричард Глацер / Richard Glatzer, Уош Уэстмоленд / Wash Westmoreland) [2014, США, Франция, драма, BDRip-AVC] MVO (R5) + Subs (Rus, Eng) + Original Eng

    Ответить на тему
     
    Автор Сообщение

    Light

    Создавать темы 28-Май-2015 22:42

           

    [Цитировать]

    Всё ещё Элис / Still Alice
    Страна: США, Франция
    Жанр: драма
    Год выпуска: 2014
    Продолжительность: 01:41:15
    Перевод: Профессиональный (многоголосый закадровый) R5
    Cубтитры: русские, английские
    Оригинальная аудиодорожка: английский
    Режиссер: Ричард Глацер / Richard Glatzer, Уош Уэстмоленд / Wash Westmoreland
    В ролях: Джулианна Мур, Алек Болдуин, Кристен Стюарт, Кейт Босворт, Шэйн МакРей, Хантер Пэрриш, Сет Гиллиам, Стефан Канкен, Эрин Дрэйк, Дэниэл Джерролл
    Описание: Элис Хаулэнд — известный профессор лингвистики. Она счастлива в браке, у нее трое взрослых детей. Но все меняется, когда однажды она начинает забывать слова…

    Сэмпл: скачать
    Качество видео: BDRip-AVC [Blu-ray Disc -BLUEBIRD]
    Формат видео: MKV
    Видео: AVC, 1138 x 614 (1,85:1), 2259 kbps, 23,976 fps, 0.135 bpp
    Аудио: AC3, 6ch, 48 kHz, 384 kbps, 16 bit
    Аудио 2: AC3, 6ch, 48 kHz, 448 kbps, 16 bit
    Формат субтитров: softsub (SRT)

    MediaInfo

    Уникальный идентификатор : 215832173638596471257874244038884247779 (0xA25FC3BDF531A93B9DCC00FC3076C8E3)
    Полное имя : F:\Films\Alice\Alice.mkv
    Формат : Matroska
    Версия формата : Version 4 / Version 2
    Размер файла : 2,18 Гбайт
    Продолжительность : 1 ч. 41 м.
    Общий поток : 3089 Кбит/сек
    Дата кодирования : UTC 2015-05-28 13:16:42
    Программа кодирования : mkvmerge v7.7.0 ('Six Voices') 64bit built on Feb 28 2015 23:39:33
    Библиотека кодирования : libebml v1.3.1 + libmatroska v1.4.2
    _STATISTICS_WRITING_APP : mkvmerge v7.7.0 ('Six Voices') 64bit built on Feb 28 2015 23:39:33
    _STATISTICS_WRITING_DATE_UTC : 2015-05-28 13:16:42
    _STATISTICS_TAGS : BPS DURATION NUMBER_OF_FRAMES NUMBER_OF_BYTES
    DURATION : 01:34:02.969000000
    NUMBER_OF_FRAMES : 1238
    NUMBER_OF_BYTES : 52108
    Видео
    Идентификатор : 1
    Формат : AVC
    Формат/Информация : Advanced Video Codec
    Профиль формата : High@L4.1
    Параметр CABAC формата : Да
    Параметр ReFrames формата : 8 кадров
    Идентификатор кодека : V_MPEG4/ISO/AVC
    Продолжительность : 1 ч. 41 м.
    Битрейт : 2259 Кбит/сек
    Ширина : 1138 пикселей
    Высота : 614 пикселей
    Соотношение сторон : 1,85:1
    Режим частоты кадров : Постоянный
    Частота кадров : 23,976 кадра/сек
    Цветовое пространство : YUV
    Субдискретизация насыщенности : 4:2:0
    Битовая глубина : 8 бит
    Тип развёртки : Прогрессивная
    Бит/(Пиксели*Кадры) : 0.135
    Размер потока : 1,55 Гбайт (71%)
    Библиотека кодирования : x264 core 142 r2431 ac76440
    Настройки программы : cabac=1 / ref=8 / deblock=1:-2:-1 / analyse=0x3:0x133 / me=umh / subme=9 / psy=1 / psy_rd=1.00:0.05 / mixed_ref=0 / me_range=32 / chroma_me=1 / trellis=2 / 8x8dct=1 / cqm=0 / deadzone=21,11 / fast_pskip=0 / chroma_qp_offset=-3 / threads=4 / lookahead_threads=1 / sliced_threads=0 / nr=0 / decimate=0 / interlaced=0 / bluray_compat=0 / constrained_intra=0 / bframes=12 / b_pyramid=2 / b_adapt=2 / b_bias=0 / direct=1 / weightb=1 / open_gop=0 / weightp=2 / keyint=240 / keyint_min=23 / scenecut=40 / intra_refresh=0 / rc=2pass / mbtree=0 / bitrate=2259 / ratetol=1.0 / qcomp=0.55 / qpmin=10 / qpmax=69 / qpstep=4 / cplxblur=20.0 / qblur=0.5 / ip_ratio=1.40 / pb_ratio=1.30 / aq=1:1.00
    Default : Да
    Forced : Нет
    Аудио #1
    Идентификатор : 2
    Формат : AC-3
    Формат/Информация : Audio Coding 3
    Расширение режима : CM (complete main)
    Параметр Endianness формата : Big
    Идентификатор кодека : A_AC3
    Продолжительность : 1 ч. 41 м.
    Вид битрейта : Постоянный
    Битрейт : 384 Кбит/сек
    Каналы : 6 каналов
    Расположение каналов : Front: L C R, Side: L R, LFE
    Частота : 48,0 КГц
    Битовая глубина : 16 бит
    Метод сжатия : С потерями
    Размер потока : 278 Мбайт (12%)
    Заголовок : Русский многоголосый закадровый (R5)
    Язык : Russian
    Default : Да
    Forced : Нет
    Аудио #2
    Идентификатор : 3
    Формат : AC-3
    Формат/Информация : Audio Coding 3
    Расширение режима : CM (complete main)
    Параметр Endianness формата : Big
    Идентификатор кодека : A_AC3
    Продолжительность : 1 ч. 41 м.
    Вид битрейта : Постоянный
    Битрейт : 448 Кбит/сек
    Каналы : 6 каналов
    Расположение каналов : Front: L C R, Side: L R, LFE
    Частота : 48,0 КГц
    Битовая глубина : 16 бит
    Метод сжатия : С потерями
    Размер потока : 324 Мбайт (15%)
    Заголовок : Английский
    Язык : English
    Default : Нет
    Forced : Нет
    Текст #1
    Идентификатор : 4
    Формат : UTF-8
    Идентификатор кодека : S_TEXT/UTF8
    Идентификатор кодека/Информация : UTF-8 Plain Text
    Заголовок : Русские
    Язык : Russian
    Default : Нет
    Forced : Нет
    Текст #2
    Идентификатор : 5
    Формат : UTF-8
    Идентификатор кодека : S_TEXT/UTF8
    Идентификатор кодека/Информация : UTF-8 Plain Text
    Заголовок : Английские
    Язык : English
    Default : Нет
    Forced : Нет
    Меню
    00:00:00.000 : en:00:00:00.000
    00:04:40.697 : en:00:04:40.697
    00:11:03.246 : en:00:11:03.246
    00:15:37.895 : en:00:15:37.895
    00:21:34.668 : en:00:21:34.668
    00:28:51.063 : en:00:28:51.063
    00:36:54.546 : en:00:36:54.546
    00:43:54.841 : en:00:43:54.841
    00:49:39.518 : en:00:49:39.518
    00:58:20.247 : en:00:58:20.247
    01:05:08.863 : en:01:05:08.863
    01:11:36.000 : en:01:11:36.000
    01:16:38.886 : en:01:16:38.886
    01:20:02.172 : en:01:20:02.172
    01:27:08.849 : en:01:27:08.849
    01:30:08.945 : en:01:30:08.945

    Скриншот c названием фильма

    Скриншоты

    Награды

    Оскар, 2015 год
    Победитель (1):

    Лучшая женская роль (Джулианна Мур)
    Золотой глобус, 2015 год
    Победитель (1):

    Лучшая женская роль (драма) (Джулианна Мур)

    Британская академия, 2015 год
    Победитель (1):

    Лучшая женская роль (Джулианна Мур)
    Премия Гильдии актеров, 2015 год
    Победитель (1):

    Лучшая женская роль (Джулианна Мур)

    Рейтинг МРАА

    RG-13 - детям до 13 лет просмотр не желателен
    Скачать .torrent

    Скачать торрент-файл бесплатно и на максимальной скорости!

    Как скачивать? · Что такое торрент? · Рейтинг и ограничения

    !ВНИМАНИЕ!
    Сайт не распространяет и не хранит электронные версии произведений, а занимается лишь лишь предоставлением доступа к создаваемому пользователями каталогу ссылок на торрент-файлы, которые содержат только списки хеш-сумм, убедительная просьба с жалобами обращаться напрямую к пользователю. Файлы для обмена на трекере предоставлены пользователями сайта, и администрация не несёт ответственности за их содержание. Просьба не заливать файлы, защищенные авторскими правами, а также файлы нелегального содержания!


    _________________
    [Профиль] [ЛС]
    Показать сообщения:    
    Ответить на тему

    Текущее время: Сегодня, в 10:48

    Часовой пояс: GMT + 2



    Вы не можете начинать темы
    Вы не можете отвечать на сообщения
    Вы не можете редактировать свои сообщения
    Вы не можете удалять свои сообщения
    Вы не можете голосовать в опросах
    Вы не можете прикреплять файлы к сообщениям
    Вы не можете скачивать файлы