BitTorrentTracker PerecTracker.org
BitTorrentTracker PerecTracker.org
    
Регистрация  ·  Вход
 
 · 
Забыли пароль?

  • Где находится нофелет (Геральд Бежанов) [1987, мелодрама, комедия, DVDRip]

    Ответить на тему
     
    Автор Сообщение

    Light

    Создавать темы 28-Май-2015 18:30

           

    [Цитировать]

    Где находится нофелет
    Жанр: мелодрама, комедия
    Год выпуска: 1987
    Продолжительность: 01:17:24
    Режиссёр: Геральд Бежанов
    В ролях: Владимир Меньшов, Александр Панкратов-Черный, Людмила Шагалова, Николай Парфёнов, Марина Дюжева, Елена Сафонова, Инна Ульянова, Екатерина Жемчужная, Ирина Розанова, Валентина Теличкина...
    Описание: Что такое нофелет? Это разъяснит вам один из героев фильма — Гена, который взялся с помощью нехитрого приема в два счета найти невесту своему двоюродному брату Паше, сорокалетнему холостяку.
    В итоге Гена остается в дураках, а Паше надоедает попадать в смешные ситуации, и он сам находит выход их положения…
    Семпл: http://multi-up.com/1050709
    Качество видео: DVDRip Исходник
    Формат видео: AVI
    Видео: 704x304 (2.32:1), 25 fps, XviD build 73 ~2331 kbps avg, 0.44 bit/pixel
    Аудио: 48 kHz, AC3 Dolby Digital, 1/0 (C) ch, ~192 kbps

    MediaInfo

    General
    Complete name : C:\Где находится нофелет.avi
    Format : AVI
    Format/Info : Audio Video Interleave
    File size : 1.37 GiB
    Duration : 1h 17mn
    Overall bit rate : 2 534 Kbps
    Writing application : VirtualDubMod 1.5.10.3 (build 2550/release)
    Writing library : VirtualDubMod build 2550/release
    Video
    ID : 0
    Format : MPEG-4 Visual
    Format profile : Advanced Simple@L5
    Format settings, BVOP : 1
    Format settings, QPel : No
    Format settings, GMC : No warppoints
    Format settings, Matrix : Custom
    Codec ID : XVID
    Codec ID/Hint : XviD
    Duration : 1h 17mn
    Bit rate : 2 332 Kbps
    Width : 704 pixels
    Height : 304 pixels
    Display aspect ratio : 2.35:1
    Frame rate : 25.000 fps
    Color space : YUV
    Chroma subsampling : 4:2:0
    Bit depth : 8 bits
    Scan type : Progressive
    Compression mode : Lossy
    Bits/(Pixel*Frame) : 0.436
    Stream size : 1.26 GiB (92%)
    Writing library : XviD 73
    Audio
    ID : 1
    Format : AC-3
    Format/Info : Audio Coding 3
    Mode extension : CM (complete main)
    Format settings, Endianness : Big
    Codec ID : 2000
    Duration : 1h 17mn
    Bit rate mode : Constant
    Bit rate : 192 Kbps
    Channel(s) : 1 channel
    Channel positions : Front: C
    Sampling rate : 48.0 KHz
    Bit depth : 16 bits
    Compression mode : Lossy
    Delay relative to video : 32ms
    Stream size : 106 MiB (8%)
    Alignment : Split accross interleaves
    Interleave, duration : 40 ms (1.00 video frame)
    Interleave, preload duratio : 500 ms

    Скриншоты

    Скачать .torrent

    Скачать торрент-файл бесплатно и на максимальной скорости!

    Как скачивать? · Что такое торрент? · Рейтинг и ограничения

    !ВНИМАНИЕ!
    Сайт не распространяет и не хранит электронные версии произведений, а занимается лишь лишь предоставлением доступа к создаваемому пользователями каталогу ссылок на торрент-файлы, которые содержат только списки хеш-сумм, убедительная просьба с жалобами обращаться напрямую к пользователю. Файлы для обмена на трекере предоставлены пользователями сайта, и администрация не несёт ответственности за их содержание. Просьба не заливать файлы, защищенные авторскими правами, а также файлы нелегального содержания!


    _________________
    [Профиль] [ЛС]
    Показать сообщения:    
    Ответить на тему

    Текущее время: Сегодня, в 00:26

    Часовой пояс: GMT + 2



    Вы не можете начинать темы
    Вы не можете отвечать на сообщения
    Вы не можете редактировать свои сообщения
    Вы не можете удалять свои сообщения
    Вы не можете голосовать в опросах
    Вы не можете прикреплять файлы к сообщениям
    Вы не можете скачивать файлы