Register  ·  Log in
Forgot password?

  • Эффи / Эффи Грей / Effie Gray (Ричард Лэкстон / Richard Laxton) [2014, Великобритания, Драма, HDRip] VO (Lenape)

    Reply to topic
    Author Message


    Post 28-May-2015 15:18



    Эффи / Эффи Грей / Effie Gray-Страна: Великобритания
    Жанр: Драма
    Год выпуска: 2014
    Продолжительность: 01:48:25-Перевод: Одноголосый закадровый [Lenape]
    Cубтитры: нет-Режиссер: Ричард Лэкстон / Richard Laxton-В ролях: Дакота Фэннинг, Том Стёрридж, Эмма Томпсон, Джули Уолтерс, Клаудия Кардинале, Робби Колтрейн, Дэвид Суше, Дерек Джекоби, Рассел Тови, Джеймс Фокс-Описание: Фильм о непростых супружеских отношениях, о любовном треугольнике между британским поэтом, художником, критиком Джоном Рескином, его молодой женой Эффи и художником-прерафаэлитом, автором знаменитой «Офелии», Джоном Эвереттом Милле.-Благодарность: за перевод субтитров, по которым делалась озвучка спасибо victoria_vn, Irony, Alexdezh, Trident-Sample | IMDB | КиноПоиск-Тип релиза: HDRip [исх. BDRip 1080p]
    Формат видео: AVI-Видео: 656x272 (2.41:1), 24.000 fps, XviD build 50, 824 kbps avg, 0.19 bit/pixel
    Аудио: 48 kHz, MPEG Layer 3, 2 ch, 128.00 kbps avg [Russian_VO]-Релиз группы:


    Complete name : D:\Мои релизы\Effie Gray_HDRip_[745]_VO_Lenape_RG_All_Films.avi
    Format : AVI
    Format/Info : Audio Video Interleave
    File size : 746 MiB
    Duration : 1h 48mn
    Overall bit rate : 962 Kbps
    Writing application : VirtualDubMod | || (build 2550/release)
    Writing library : VirtualDubMod build 2550/release
    ID : 0
    Format : MPEG-4 Visual
    Format profile : Advanced Simple@L5
    Format settings, BVOP : Yes
    Format settings, QPel : No
    Format settings, GMC : No warppoints
    Format settings, Matrix : Custom
    Codec ID : XVID
    Codec ID/Hint : XviD
    Duration : 1h 48mn
    Bit rate : 825 Kbps
    Width : 656 pixels
    Height : 272 pixels
    Display aspect ratio : 2.40:1
    Frame rate : 24.000 fps
    Color space : YUV
    Chroma subsampling : 4:2:0
    Bit depth : 8 bits
    Scan type : Progressive
    Compression mode : Lossy
    Bits/(Pixel*Frame) : 0.193
    Stream size : 639 MiB (86%)
    Writing library : XviD 1.2.1 (UTC 2008-12-04)
    ID : 1
    Format : MPEG Audio
    Format version : Version 1
    Format profile : Layer 3
    Codec ID : 55
    Codec ID/Hint : MP3
    Duration : 1h 48mn
    Bit rate mode : Constant
    Bit rate : 128 Kbps
    Channel(s) : 2 channels
    Sampling rate : 48.0 KHz
    Compression mode : Lossy
    Stream size : 99.3 MiB (13%)
    Alignment : Aligned on interleaves
    Interleave, duration : 42 ms (1.00 video frame)
    Interleave, preload duration : 504 ms
    Writing library : LAME3.98r
    Encoding settings : -m s -V 4 -q 2 -lowpass 17 -b 128


    Download .torrent

    Download free and at maximum speed!

    How to Download? · What is a torrent? · Ratings and Limitations

    The site does not extend and does not store electronic(digital) versions of products, and only gives access to a reference catalogue created by users on torrent-files which contain only lists of the hash-sums, the earnest entreaty, with complaints(abuse) to access directly to the user. Files for an exchange on tracker are given by users of a site, and the administration does not bear the responsibility for their maintenance. The request to not fill in the files protected by copyrights, and also files of the illegal maintenance!

    [Profile] [PM]
    Display posts from previous:    
    Reply to topic

    The time now is: Today 00:49

    All times are GMT + 3 Hours

    You cannot post new topics in this forum
    You cannot reply to topics in this forum
    You cannot edit your posts in this forum
    You cannot delete your posts in this forum
    You cannot vote in polls in this forum
    You cannot attach files in this forum
    You cannot download files in this forum