BitTorrentTracker PerecTracker.org
BitTorrentTracker PerecTracker.org
    
Регистрация  ·  Вход
 
 · 
Забыли пароль?

  • Снег и пепел (Серии 1-4 из 4) ( Александр Кириенко) [2015, Детектив, военный, WEB-DLRip-AVC 1080p ]

    Ответить на тему
     
    Автор Сообщение

    Враг Нароода

    Создавать темы 28-Май-2015 10:54

           

    [Цитировать]

    -Снег и пепел Серии 1-4 из 4----Год выпуска: 2015
    Выпущено Россия, «ПРИОР Продакшн», «Студия Грин Фильм»
    Жанр: Детектив, военный
    Продолжительность: 00:45:00
    Серия: 1-4
    Количество серий в сезоне: 4
    Перевод :Не требуется
    Субтитры: Нет----Режиссер: Александр Кириенко--В ролях:Денис Шведов, Ольга Сутулова, Анатолий Белый, Даниил Спиваковский, Константин Воробьёв, Алёна Ивченко, Яков Шамшин, Игнат Акрачков, Алексей Гришин, Юрий Ицков, Алексей Красноцветов, Антонис Шаманиди, Любовь Макеева, Евгений Капитонов, Сергей Бызгу--В 1942 году крупное подразделение советских войск попадает в немецкий «котел» — с тылами армию соединяет лишь узкий перешеек, окруженный болотами. Немцы готовят прорыв, среди русских находится опытный диверсант. Для его разоблачения НКВД внедряет одного из лучших сотрудников, майора Урусова, который берет с собой трех молодых разведчиков. Выдавая себя за полковника Ямпольского, Урусов начинает расследование, а диверсант не дремлет: одного за другим убирает свидетелей и организует постройку лесной дороги для прохода немецкой бронетехники через кажущийся непроходимым лес. У Урусова постоянно появляются новые подозреваемые, но каждая версия рассыпается, как назло.----Качество : WEB-DLRip-AVC 1080p
    Формат: MKV
    Видео кодек: H264
    Видео: 6666Кбит/сек,1920х1080(16.9),в 25.000кадр/сек,AVC(PAL)(Main@L4)(CABAC/2 Ref Frames)
    Аудио Russian Dolby Digital 5.1:136Кбит/сек,48.0КГц,6каналов,AAC(LC)--

    Скриншоты

    --

    MediaInfo

    Общее
    Полное имя : E:\К И Н О\Н А Ш Е К И Н О\СНЕГ И ПЕПЕЛ\SNEG_I_PEPEL_2015_RUS[RUSSIA]_DD5.1_H264_Nikolai.Baranov_WEB-DLRip-AVC_(1080p)\SNEG_I_PEPEL_2015_E01_-_Е04_RUS[RUSSIA]_DD5.1_H264_Nikolai.Baranov_WEB-DLRip-AVC_(1080p).mp4
    Формат : MPEG-4
    Профиль формата : Base Media / Version 2
    Идентификатор кодека : mp42
    Размер файла : 8,64 Гбайт
    Продолжительность : 3 ч. 1 м.
    Режим общего битрейта : Переменный
    Общий поток : 6806 Кбит/сек
    Дата кодирования : UTC 2015-05-26 15:55:46
    Дата пометки : UTC 2015-05-27 19:03:31
    Видео
    Идентификатор : 1
    Формат : AVC
    Формат/Информация : Advanced Video Codec
    Профиль формата : Main@L4
    Параметр CABAC формата : Да
    Параметр ReFrames формата : 2 кадра
    Идентификатор кодека : avc1
    Идентификатор кодека/Информация : Advanced Video Coding
    Продолжительность : 3 ч. 1 м.
    Продолжительность оригинала : 3 ч. 1 м.
    Битрейт : 6666 Кбит/сек
    Максимальный битрейт : 20,4 Мбит/сек
    Ширина : 1920 пикселей
    Высота : 1080 пикселей
    Соотношение сторон : 16:9
    Режим частоты кадров : Постоянный
    Частота кадров : 25,000 кадров/сек
    Стандарт вещания : PAL
    Цветовое пространство : YUV
    Субдискретизация насыщенности : 4:2:0
    Битовая глубина : 8 бит
    Тип развёртки : Прогрессивная
    Бит/(Пиксели*Кадры) : 0.129
    Размер потока : 8,46 Гбайт (98%)
    Размер потока оригинала : 8,46 Гбайт (98%)
    Язык : English
    Дата кодирования : UTC 2015-05-26 15:55:46
    Дата пометки : UTC 2015-05-27 19:03:31
    Цветовой диапазон : Limited
    Аудио
    Идентификатор : 2
    Формат : AAC
    Формат/Информация : Advanced Audio Codec
    Профиль формата : LC
    Идентификатор кодека : 40
    Продолжительность : 3 ч. 1 м.
    Вид битрейта : Переменный
    Битрейт : 136 Кбит/сек
    Максимальный битрейт : 200 Кбит/сек
    Каналы : 6 каналов
    Расположение каналов : Front: L C R, Side: L R, LFE
    Частота : 48,0 КГц
    Метод сжатия : С потерями
    Размер потока : 177 Мбайт (2%)
    Язык : English
    Дата кодирования : UTC 2015-05-26 15:55:46
    Дата пометки : UTC 2015-05-27 19:03:31
    Меню
    00:00:00.000 : Start
    --------Релиз от: Nikolai.Baranov --------
    Скачать .torrent

    Скачать торрент-файл бесплатно и на максимальной скорости!

    Как скачивать? · Что такое торрент? · Рейтинг и ограничения

    !ВНИМАНИЕ!
    Сайт не распространяет и не хранит электронные версии произведений, а занимается лишь лишь предоставлением доступа к создаваемому пользователями каталогу ссылок на торрент-файлы, которые содержат только списки хеш-сумм, убедительная просьба с жалобами обращаться напрямую к пользователю. Файлы для обмена на трекере предоставлены пользователями сайта, и администрация не несёт ответственности за их содержание. Просьба не заливать файлы, защищенные авторскими правами, а также файлы нелегального содержания!


    _________________

    Легко быть оптимистом, когда судьба не валит с ног тяжелыми ударами, а лишь иногда легонько шлепает по заднице.
    [Профиль] [ЛС]
    Показать сообщения:    
    Ответить на тему

    Текущее время: Сегодня, в 08:09

    Часовой пояс: GMT + 2



    Вы не можете начинать темы
    Вы не можете отвечать на сообщения
    Вы не можете редактировать свои сообщения
    Вы не можете удалять свои сообщения
    Вы не можете голосовать в опросах
    Вы не можете прикреплять файлы к сообщениям
    Вы не можете скачивать файлы