Register  ·  Log in
Forgot password?

  • Простушка / The DUFF (Эри Сандел / Ari Sandel) [2015, США, Комедия, экранизация, HDRip] Dub

    Reply to topic
    Author Message


    Post 28-May-2015 02:42



    Простушка / The DUFF
    Страна: США
    Жанр: Комедия, экранизация
    Год выпуска: 2015
    Продолжительность: 01:41:14
    Перевод: Профессиональный (дублированный)
    Cубтитры: нет
    Оригинальная аудиодорожка: нет
    Режиссер: Эри Сандел / Ari Sandel
    В ролях: Мэй Уитман, Робби Амелл, Белла Торн, Бьянка А. Сантос, Скайлер Сэмюэлс, Романи Малко, Ник Эверсман, Крис Уайлд, Кен Жонг, Эллисон Дженни
    Описание: Экранизация любовного романа Коди Кеплингер «The DUFF». Качок, ботан, рокер, стерва — в каждой компании есть персонажи с такими кличками. Бьянка Пайпер не подозревает, как ее зовут за ее спиной. Подружки списывают у нее физику и берут ее с собой на тусовки, чтобы круче смотреться на ее фоне. Школьный плейбой Уэсли Раш открывает ей глаза на правду… Как Бьянке избавиться от позорного статуса, стать неотразимой и завоевать сердце первого красавца?
    Качество видео: HDRip
    Формат видео: AVI
    Видео: XviD, 720x304 (2.35:1), 23.976 fps, ~ 1540 kbps
    Аудио: AC3, 48.0 KHz, 6 ch, 384 Kbps


    Complete name : D:\Torrent\Prostushka.2015.D.HDRip.1400Mb.avi
    Format : AVI
    Format/Info : Audio Video Interleave
    File size : 1.37 GiB
    Duration : 1h 41mn
    Overall bit rate : 1 933 Kbps
    Writing application : VirtualDubMod (build 2540/release)
    Writing library : VirtualDubMod build 2540/release
    ID : 0
    Format : MPEG-4 Visual
    Format profile : Advanced Simple@L5
    Format settings, BVOP : 2
    Format settings, QPel : No
    Format settings, GMC : No warppoints
    Format settings, Matrix : Default (MPEG)
    Codec ID : XVID
    Codec ID/Hint : XviD
    Duration : 1h 41mn
    Bit rate : 1 540 Kbps
    Width : 720 pixels
    Height : 304 pixels
    Display aspect ratio : 2.35:1
    Frame rate : 23.976 fps
    Color space : YUV
    Chroma subsampling : 4:2:0
    Bit depth : 8 bits
    Scan type : Progressive
    Compression mode : Lossy
    Bits/(Pixel*Frame) : 0.293
    Stream size : 1.09 GiB (80%)
    Writing library : XviD 1.2.1 (UTC 2008-12-04)
    ID : 1
    Format : AC-3
    Format/Info : Audio Coding 3
    Mode extension : CM (complete main)
    Format settings, Endianness : Big
    Codec ID : 2000
    Duration : 1h 41mn
    Bit rate mode : Constant
    Bit rate : 384 Kbps
    Channel(s) : 6 channels
    Channel positions : Front: L C R, Side: L R, LFE
    Sampling rate : 48.0 KHz
    Compression mode : Lossy
    Stream size : 278 MiB (20%)
    Alignment : Split accross interleaves
    Interleave, duration : 42 ms (1.00 video frame)
    Interleave, preload duration : 500 ms

    Скриншот c названием фильма


    Download .torrent

    Download free and at maximum speed!

    How to Download? · What is a torrent? · Ratings and Limitations

    The site does not extend and does not store electronic(digital) versions of products, and only gives access to a reference catalogue created by users on torrent-files which contain only lists of the hash-sums, the earnest entreaty, with complaints(abuse) to access directly to the user. Files for an exchange on tracker are given by users of a site, and the administration does not bear the responsibility for their maintenance. The request to not fill in the files protected by copyrights, and also files of the illegal maintenance!

    [Profile] [PM]


    Post 28-May-2015 07:39 (after 4 hours)



    [Profile] [PM]
    Display posts from previous:    
    Reply to topic

    The time now is: Today 17:03

    All times are GMT + 3 Hours

    You cannot post new topics in this forum
    You cannot reply to topics in this forum
    You cannot edit your posts in this forum
    You cannot delete your posts in this forum
    You cannot vote in polls in this forum
    You cannot attach files in this forum
    You cannot download files in this forum