BitTorrentTracker PerecTracker.org
BitTorrentTracker PerecTracker.org
    
Регистрация  ·  Вход
 
 · 
Забыли пароль?

  • Всё ещё Элис / Still Alice (Ричард Глацер / Richard Glatzer, Уош Уэстмоленд / Wash Westmoreland) [2014, США, драма, BDRip-AVC] MVO (Лицензия)

    Ответить на тему
     
    Автор Сообщение

    Light

    Создавать темы 28-Май-2015 01:42

           

    [Цитировать]

    Все еще Элис
    Still Alice


    Страна: США, Франция
    Жанр: драма
    Год выпуска: 2014
    Продолжительность: 01:41:15
    Перевод: Профессиональный (многоголосый закадровый) [Лицензия]
    Cубтитры: нет
    Оригинальная аудиодорожка: нет
    Режиссер:
    Ричард Глацер / Richard Glatzer, Уош Уэстмоленд / Wash Westmoreland
    В ролях:
    Джулианна Мур, Алек Болдуин, Кристен Стюарт, Кейт Босворт, Хантер Пэрриш, Виктория Картагена, Эрин Майя Дарк, Шэйн МакРей, Стефан Канкен, Эха Урбсалу
    Описание:
    Элис Хаулэнд — известный профессор лингвистики. Она счастлива в браке, у нее трое взрослых детей. Но все меняется, когда однажды она начинает забывать слова…

    Релиз:
    Автор рипа: Stalker oK
    Сэмпл
    Качество видео: BDRip-AVC [Blu-ray 1080p-bluebird]
    Формат видео: MKV
    Видео кодек: AVC
    Аудио кодек: AC3
    Видео: 1669 Кбит/сек, 1012*546 (1,853), в 23,976 кадр/сек, AVC
    Аудио: Russian, 384 Кбит/сек, 48,0 КГц, 16 бит, 6 канала(ов), AC-3

    MediaInfo

    Общее
    Уникальный идентификатор : 227256842536117700364440530890478291156 (0xAAF8136854D4CB72A127C6C85C3B88D4)
    Полное имя : L:\рипы\Всё ещё Элис\Vse.eshhe.Elis.2014.BDRip-AVC.MVO.1.45Gb...stalkerok.new-team.mkv
    Формат : Matroska
    Размер файла : 1,45 Гбайт
    Продолжительность : 1 ч. 41 м.
    Общий поток : 2054 Кбит/сек
    Название фильма : Still Alice, 2014 (New-Team) (Rip by Stalker oK)
    Дата кодирования : UTC 2015-05-27 16:03:41
    Программа кодирования : mkvmerge v7.9.0 ('Birds') 64bit
    Библиотека кодирования : libebml v1.3.1 + libmatroska v1.4.2
    Видео
    Идентификатор : 1
    Формат : AVC
    Формат/Информация : Advanced Video Codec
    Профиль формата : High@L4.1
    Параметр CABAC формата : Да
    Параметр ReFrames формата : 12 кадры
    Идентификатор кодека : V_MPEG4/ISO/AVC
    Продолжительность : 1 ч. 41 м.
    Битрейт : 1669 Кбит/сек
    Ширина : 1012 пикс.
    Высота : 546 пикс.
    Соотношение сторон : 1,853
    Частота кадров : 23,976 кадр/сек
    Цветовое пространство : YUV
    Подвыборка цветности : 4:2:0
    Битовая глубина : 8 бит
    Тип развёртки : Прогрессивная
    Бит/(Пиксели*Кадры) : 0.126
    Размер потока : 1,15 Гбайт (79%)
    Библиотека кодирования : x264 core 146 r2538kMod 121396c
    Настройки программы : cabac=1 / ref=12 / deblock=1:-3:-3 / analyse=0x3:0x133 / me=umh / subme=11 / psy=1 / fade_compensate=0.00 / psy_rd=1.00:0.15 / mixed_ref=1 / me_range=32 / chroma_me=1 / trellis=2 / 8x8dct=1 / cqm=0 / deadzone=21,11 / fast_pskip=0 / chroma_qp_offset=-3 / threads=12 / lookahead_threads=3 / sliced_threads=0 / nr=0 / decimate=0 / interlaced=0 / bluray_compat=0 / constrained_intra=0 / fgo=0 / bframes=14 / b_pyramid=2 / b_adapt=2 / b_bias=0 / direct=3 / weightb=1 / open_gop=0 / weightp=2 / keyint=240 / keyint_min=23 / scenecut=40 / intra_refresh=0 / rc_lookahead=40 / rc=2pass / mbtree=0 / bitrate=1669 / ratetol=1.0 / qcomp=0.65 / qpmin=0 / qpmax=69 / qpstep=4 / cplxblur=20.0 / qblur=0.5 / vbv_maxrate=50000 / vbv_bufsize=62500 / nal_hrd=none / filler=0 / ip_ratio=1.30 / pb_ratio=1.20 / aq=3:0.80
    Аудио
    Идентификатор : 2
    Формат : AC-3
    Формат/Информация : Audio Coding 3
    Расширение режима : CM (complete main)
    Идентификатор кодека : A_AC3
    Продолжительность : 1 ч. 41 м.
    Вид битрейта : Постоянный
    Битрейт : 384 Кбит/сек
    Канал(ы) : 6 канала(ов)
    Расположение каналов : Front: L C R, Side: L R, LFE
    Частота : 48,0 КГц
    Битовая глубина : 16 бит
    Метод сжатия : С потерями
    Размер потока : 278 Мбайт (19%)
    Язык : Russian
    Меню
    00:00:00.000 : en:Chapter 1
    00:04:40.697 : en:Chapter 2
    00:11:03.245 : en:Chapter 3
    00:15:37.895 : en:Chapter 4
    00:21:34.668 : en:Chapter 5
    00:28:51.062 : en:Chapter 6
    00:36:54.545 : en:Chapter 7
    00:43:54.840 : en:Chapter 8
    00:49:39.518 : en:Chapter 9
    00:58:20.246 : en:Chapter 10
    01:05:08.863 : en:Chapter 11
    01:11:36.000 : en:Chapter 12
    01:16:38.885 : en:Chapter 13
    01:20:02.172 : en:Chapter 14
    01:27:08.848 : en:Chapter 15
    01:30:08.945 : en:Chapter 16

    Скриншоты

    Скачать .torrent

    Скачать торрент-файл бесплатно и на максимальной скорости!

    Как скачивать? · Что такое торрент? · Рейтинг и ограничения

    !ВНИМАНИЕ!
    Сайт не распространяет и не хранит электронные версии произведений, а занимается лишь лишь предоставлением доступа к создаваемому пользователями каталогу ссылок на торрент-файлы, которые содержат только списки хеш-сумм, убедительная просьба с жалобами обращаться напрямую к пользователю. Файлы для обмена на трекере предоставлены пользователями сайта, и администрация не несёт ответственности за их содержание. Просьба не заливать файлы, защищенные авторскими правами, а также файлы нелегального содержания!


    _________________
    [Профиль] [ЛС]
    Показать сообщения:    
    Ответить на тему

    Текущее время: Сегодня, в 12:39

    Часовой пояс: GMT + 2



    Вы не можете начинать темы
    Вы не можете отвечать на сообщения
    Вы не можете редактировать свои сообщения
    Вы не можете удалять свои сообщения
    Вы не можете голосовать в опросах
    Вы не можете прикреплять файлы к сообщениям
    Вы не можете скачивать файлы