BitTorrentTracker PerecTracker.org
BitTorrentTracker PerecTracker.org
    
Регистрация  ·  Вход
 
 · 
Забыли пароль?

  • Липучка / Flypaper (Роб Минкофф / Rob Minkoff) [2011, Германия, США, комедия, криминал, детектив, BDRip] AVO (Гаврилов)

    Ответить на тему
     
    Автор Сообщение

    Light

    Создавать темы 27-Май-2015 04:42

           

    [Цитировать]

    Липучка / FlypaperСтрана: Германия, США
    Жанр: комедия, криминал, детектив
    Год выпуска: 2011
    Продолжительность: 01:27:14
    Перевод: Авторский (одноголосый закадровый) Андрей Гаврилов
    Cубтитры: нет
    Режиссер: Роб Минкофф / Rob Minkoff
    В ролях: Патрик Демпси, Эшли Джадд, Тим Блейк Нельсон, Мехи Файфер, Мэтт Райан, Джефри Тэмбор, Джон Вентимилья, Прюитт Тэйлор Винс, Кертис Армстронг, Октавия Спенсер
    Описание: Перед самым закрытием в банк врывается две группы грабителей. Посетители и работники банка оказываются между двух огней. Один из посетителей старается примирить представителей двух криминальных групп — ведь это единственный шанс выжить для тех кто оказался в банке, а для него шанс произвести впечатление на девушку-кассира, в которую он влюбился с первого взгляда. Постепенно наш герой понимает, что похоже, все кроме него оказались в этом банке в момент ограбления не случайно…

    Качество видео: ВDRip
    Формат видео: AVI
    Видео кодек: XviD
    Аудио кодек: AC3
    Видео: 720x304 (2.37:1), 23.976 fps, XviD build 64 ~1921 kbps avg, 0.37 bit/pixel
    Аудио: 48 kHz, AC3 Dolby Digital, 3/2 (L,C,R,l,r) + LFE ch, ~448 kbps

    Доп.инфо

    за видеоряд спасибо Гном
    за перевод Гаврилова большое спасибо Kampfer161, zetrob, Guyver, audiolubitel, Pain_70, feldeger, rocky4, Джосс, therox, spacenoise, fly32, ZeDOK, gemini, slimka, chef&chef, shitman82, SavineX, dunhill200

    MediaInfo

    Полное имя : Липучка.avi
    Формат : AVI
    Формат/Информация : Audio Video Interleave
    Размер файла : 1,45 Гбайт
    Продолжительность : 1 ч. 27 м.
    Общий поток : 2379 Кбит/сек
    Видео
    Идентификатор : 0
    Формат : MPEG-4 Visual
    Профиль формата : Advanced Simple@L5
    Параметр BVOP формата : 1
    Параметр QPel формата : Нет
    Параметр GMC формата : Без точки перехода
    Параметр матрицы формата : Выборочная
    Идентификатор кодека : XVID
    Идентификатор кодека/Подсказка : XviD
    Продолжительность : 1 ч. 27 м.
    Битрейт : 1921 Кбит/сек
    Ширина : 720 пикселей
    Высота : 304 пикселя
    Соотношение сторон : 2,35:1
    Частота кадров : 23,976 кадра/сек
    Цветовое пространство : YUV
    Субдискретизация насыщенности : 4:2:0
    Битовая глубина : 8 бит
    Тип развёртки : Прогрессивная
    Метод сжатия : С потерями
    Бит/(Пиксели*Кадры) : 0.366
    Размер потока : 1,17 Гбайт (81%)
    Библиотека кодирования : XviD 64
    Аудио
    Идентификатор : 1
    Формат : AC-3
    Формат/Информация : Audio Coding 3
    Расширение режима : CM (complete main)
    Параметр Endianness формата : Big
    Идентификатор кодека : 2000
    Продолжительность : 1 ч. 27 м.
    Вид битрейта : Постоянный
    Битрейт : 448 Кбит/сек
    Каналы : 6 каналов
    Расположение каналов : Front: L C R, Side: L R, LFE
    Частота : 48,0 КГц
    Битовая глубина : 16 бит
    Метод сжатия : С потерями
    Размер потока : 280 Мбайт (19%)
    Выравнивание : Разделение по промежуткам
    Продолжительность промежутка : 42 мс. (1,00 видеокадр)
    Время предзагрузки промежутка : 500 мс.

    Скриншоты

    Скачать .torrent

    Скачать торрент-файл бесплатно и на максимальной скорости!

    Как скачивать? · Что такое торрент? · Рейтинг и ограничения

    !ВНИМАНИЕ!
    Сайт не распространяет и не хранит электронные версии произведений, а занимается лишь лишь предоставлением доступа к создаваемому пользователями каталогу ссылок на торрент-файлы, которые содержат только списки хеш-сумм, убедительная просьба с жалобами обращаться напрямую к пользователю. Файлы для обмена на трекере предоставлены пользователями сайта, и администрация не несёт ответственности за их содержание. Просьба не заливать файлы, защищенные авторскими правами, а также файлы нелегального содержания!


    _________________
    [Профиль] [ЛС]
    Показать сообщения:    
    Ответить на тему

    Текущее время: Сегодня, в 16:32

    Часовой пояс: GMT + 2



    Вы не можете начинать темы
    Вы не можете отвечать на сообщения
    Вы не можете редактировать свои сообщения
    Вы не можете удалять свои сообщения
    Вы не можете голосовать в опросах
    Вы не можете прикреплять файлы к сообщениям
    Вы не можете скачивать файлы