BitTorrentTracker PerecTracker.org
BitTorrentTracker PerecTracker.org
    
Регистрация  ·  Вход
 
 · 
Забыли пароль?

  • Послесловие (Марлен Хуциев) [1983, Психологическая драма, TVRip]

    Ответить на тему
     
    Автор Сообщение

    Light

    Создавать темы 26-Май-2015 20:18

           

    [Цитировать]

    Послесловие
    Жанр: Психологическая драма
    Год выпуска: 1983
    Продолжительность: 01:32:57
    Режиссёр: Марлен Хуциев
    В ролях: Ростислав Плятт, Андрей Мягков
    Описание: Семидесятипятилетний старик приезжает из провинции в Москву к дочери и зятю. Накануне приезда отца дочь уехала в командировку. Ее муж, взявший отпуск для работы над диссертацией, остается наедине с тестем, которого почти не знает...
    По мотивам рассказа Ю.Пахомова «Тесть приехал».
    Доп. информация:

    скрытый текст

    «Спутник кинозрителя», март 1984 года
    Все время на экране — двое мужчин. Правда, разного возраста; один старик, ему около семидесяти пяти, другой — средних лет, муж его дочери, ученый, старательно пишущий диссертацию.
    Швырков — что называется, человек современный. Водит машину, носит дубленку, по вечерам прогуливает собаку; в общем — жизнь его устроена, рациональна, замкнута на деле, на работе, на повседневных занятиях. Оторваться от них, взглянуть вокруг, вдохнуть полной грудью свежесть мира мешает этому человеку спешка, текучка, рутина существования.
    К нему приезжает из провинции, откуда-то с юга тесть Алексей Борисович, приезжает просто так, погостить.
    Алексей Борисович жаден к жизни. На своем долгом веку он многое повидал, многое пережил, но не перестал удивляться миру, жизни, людям. Даже мельчайший факт, самое рядовое событие он воспринимает искренне и заинтересованно, с юношеским почти любопытством. Именно своей непосредственностью, своим неиссякаемым энтузиазмом он исподволь и заражает Швыркова...
    Рассказ об этом визите прерывается время от времени воистину телевизионными вставками; зять говорит «в аппарат», обращаясь, вероятно, к невидимому приятелю, а по сути — к нам, зрителям; пытается осмыслить, что произошло, почему после короткой побывки Алексея Борисовича перевернулась его жизнь, почему не может он по-прежнему относится к себе, к окружающим. Речь «в камеру» — это послесловие к визиту тестя.
    Семпл:

    скрытый текст

    http://sendfile.su/1121843
    Качество видео: TVRip
    Формат видео: AVI
    Видео: DivX 5, 640х480, 4:3, 25 кадров/сек, 2000 Кбит/сек
    Аудио: MPEG Audio Layer3, 128 Кбит/сек, 48,0 КГц, 2 канала

    MediaInfo

    Общее
    Полное имя : D:\TORRENTS\Послесловие_1,38.avi
    Формат : AVI
    Формат/Информация : Audio Video Interleave
    Размер файла : 1,39 Гбайт
    Продолжительность : 1 ч. 32 м.
    Общий поток : 2138 Кбит/сек
    Видео
    Идентификатор : 0
    Формат : MPEG-4 Visual
    Параметр BVOP формата : 1
    Параметр QPel формата : Нет
    Параметр GMC формата : Без точки перехода
    Параметр матрицы формата : Default (H.263)
    Режим смешивания : Сжатый битовый поток
    Идентификатор кодека : DX50
    Идентификатор кодека/Подсказка : DivX 5
    Продолжительность : 1 ч. 32 м.
    Битрейт : 2000 Кбит/сек
    Ширина : 640 пикселей
    Высота : 480 пикселей
    Соотношение сторон : 4:3
    Частота кадров : 25,000 кадров/сек
    Цветовое пространство : YUV
    Субдискретизация насыщенности : 4:2:0
    Битовая глубина : 8 бит
    Тип развёртки : Прогрессивная
    Метод сжатия : С потерями
    Бит/(Пиксели*Кадры) : 0.260
    Размер потока : 1,30 Гбайт (94%)
    Заголовок : Video
    Библиотека кодирования : DivX 3013
    Аудио
    Идентификатор : 1
    Формат : MPEG Audio
    Версия формата : Version 1
    Профиль формата : Layer 3
    Идентификатор кодека : 55
    Идентификатор кодека/Подсказка : MP3
    Продолжительность : 1 ч. 32 м.
    Вид битрейта : Постоянный
    Битрейт : 128 Кбит/сек
    Каналы : 2 канала
    Частота : 48,0 КГц
    Метод сжатия : С потерями
    Размер потока : 84,9 Мбайт (6%)
    Выравнивание : Разделение по промежуткам
    Продолжительность промежутка : 40 мс. (1,00 видеокадр)
    Время предзагрузки промежутка : 500 мс.
    Заголовок : Audio

    Скриншоты

    Скачать .torrent

    Скачать торрент-файл бесплатно и на максимальной скорости!

    Как скачивать? · Что такое торрент? · Рейтинг и ограничения

    !ВНИМАНИЕ!
    Сайт не распространяет и не хранит электронные версии произведений, а занимается лишь лишь предоставлением доступа к создаваемому пользователями каталогу ссылок на торрент-файлы, которые содержат только списки хеш-сумм, убедительная просьба с жалобами обращаться напрямую к пользователю. Файлы для обмена на трекере предоставлены пользователями сайта, и администрация не несёт ответственности за их содержание. Просьба не заливать файлы, защищенные авторскими правами, а также файлы нелегального содержания!


    _________________
    [Профиль] [ЛС]
    Показать сообщения:    
    Ответить на тему

    Текущее время: Сегодня, в 11:10

    Часовой пояс: GMT + 2



    Вы не можете начинать темы
    Вы не можете отвечать на сообщения
    Вы не можете редактировать свои сообщения
    Вы не можете удалять свои сообщения
    Вы не можете голосовать в опросах
    Вы не можете прикреплять файлы к сообщениям
    Вы не можете скачивать файлы