BitTorrentTracker PerecTracker.org
BitTorrentTracker PerecTracker.org
    
Регистрация  ·  Вход
 
 · 
Забыли пароль?

  • Доверие (Виктор Трегубович) [1975, исторический фильм, VHSRip]

    Ответить на тему
     
    Автор Сообщение

    Light

    Создавать темы 26-Май-2015 03:30

           

    [Цитировать]

    Доверие
    Жанр: исторический фильм
    Год выпуска: 1975
    Продолжительность: 01:30:35
    Режиссёр: Виктор Трегубович
    В ролях: Кирилл Лавров, Вилко Сиивола, Юрьё Тяхтеля, Йори Пауло, Эса Саарио, Ярно Хииллоскорпи, Матти Ранин, Юсси Юркка, Ееро Салми, Олави Туоми, Маргарита Терехова, Антонина Шуранова, Игорь Дмитриев, Владимир Татосов, Леонид Неведомский, Алексей Эйбоженко, Леонхард Мерзин, Олег Янковский, Вячеслав Васильев
    Описание: Действие фильма разворачивается в течение одного дня - 31 декабря 1917 года. На заседании Совета Народных комиссаров, проходившем под председательством В.И.Ленина, принимается решение о признании независимости Финляндии...
    Доп. информация: Специальный диплом фильму на 10-м ВКФ (1977).
    Ленфильм, "Феннада-фильм" (Финляндия)
    Семпл: https://www.sendspace.com/file/8mlm41
    Качество видео: VHSRip
    Формат видео: AVI
    Видео: 640x480 (1.33:1),25 fps,XviD build 50,1763 kbps avg,0.23 bit/pixel.
    Аудио: 44.100 kHz,MPEG Layer 3,2 ch,32.00 kbps avg.

    MediaInfo

    Видео
    Идентификатор : 0
    Формат : MPEG-4 Visual
    Профиль формата : Simple@L3
    Параметр BVOP формата : Нет
    Параметр QPel формата : Нет
    Параметр GMC формата : Без точки перехода
    Параметр матрицы формата : Default (H.263)
    Идентификатор кодека : XVID
    Идентификатор кодека/Подсказка : XviD
    Продолжительность : 1 ч. 30 м.
    Битрейт : 1662 Кбит/сек
    Ширина : 640 пикселей
    Высота : 480 пикселей
    Соотношение сторон : 4:3
    Частота кадров : 25,000 кадров/сек
    Цветовое пространство : YUV
    Субдискретизация насыщенности : 4:2:0
    Битовая глубина : 8 бит
    Тип развёртки : Прогрессивная
    Метод сжатия : С потерями
    Бит/(Пиксели*Кадры) : 0.216
    Размер потока : 1,05 Гбайт (92%)
    Библиотека кодирования : XviD 1.2.1 (UTC 2008-12-04)
    Аудио
    Идентификатор : 1
    Формат : MPEG Audio
    Версия формата : Version 1
    Профиль формата : Layer 3
    Режим : Joint stereo
    Идентификатор кодека : 55
    Идентификатор кодека/Подсказка : MP3
    Продолжительность : 1 ч. 30 м.
    Вид битрейта : Переменный
    Битрейт : 32,0 Кбит/сек
    Каналы : 2 канала
    Частота : 44,1 КГц
    Метод сжатия : С потерями
    Размер потока : 86,6 Мбайт (7%)
    Выравнивание : Соединение по промежуткам
    Продолжительность промежутка : 26 мс. (0,65 видеокадр)
    Библиотека кодирования : LAME3.98.4

    Скриншоты

    Скачать .torrent

    Скачать торрент-файл бесплатно и на максимальной скорости!

    Как скачивать? · Что такое торрент? · Рейтинг и ограничения

    !ВНИМАНИЕ!
    Сайт не распространяет и не хранит электронные версии произведений, а занимается лишь лишь предоставлением доступа к создаваемому пользователями каталогу ссылок на торрент-файлы, которые содержат только списки хеш-сумм, убедительная просьба с жалобами обращаться напрямую к пользователю. Файлы для обмена на трекере предоставлены пользователями сайта, и администрация не несёт ответственности за их содержание. Просьба не заливать файлы, защищенные авторскими правами, а также файлы нелегального содержания!


    _________________
    [Профиль] [ЛС]
    Показать сообщения:    
    Ответить на тему

    Текущее время: Сегодня, в 06:18

    Часовой пояс: GMT + 2



    Вы не можете начинать темы
    Вы не можете отвечать на сообщения
    Вы не можете редактировать свои сообщения
    Вы не можете удалять свои сообщения
    Вы не можете голосовать в опросах
    Вы не можете прикреплять файлы к сообщениям
    Вы не можете скачивать файлы