BitTorrentTracker PerecTracker.org
BitTorrentTracker PerecTracker.org
    
Регистрация  ·  Вход
 
 · 
Забыли пароль?

  • Охотник на лис / Foxcatcher (Беннетт Миллер / Bennett Miller) [2014 г., США, драма, спорт, история, BDRip-AVC] Dub + Original (Eng) + Sub (Rus, Eng)

    Ответить на тему
     
    Автор Сообщение

    Light

    Создавать темы 25-Май-2015 14:54

           

    [Цитировать]

    Охотник на лисFoxcatcher«Эта история шокировала мир»--Страна: США
    Студия: Annapurna Pictures / Likely Story / Media Rights Capital
    Жанр: драма, спорт, история
    Год выпуска: 2014
    Продолжительность: 02:14:26
    -Перевод: Профессиональный (дублированный) [Лицензия BD RUS]
    Оригинальная аудиодорожка: есть
    Субтитры: Русские, английские (Full + SDH + SDH-Colored)-Режиссер: Беннетт Миллер / Bennett Miller
    В ролях:
    Стив Карелл, Ченнинг Татум, Марк Руффало, Сиенна Миллер, Ванесса Редгрейв, Энтони Майкл Холл, Гай Бойд, Бретт Райс, Джексон Фрейзер, Самара Ли и др.
    -Описание: Мультимиллионер Джон Дюпон приглашает в свое поместье обладателя олимпийской золотой медали по борьбе Марка Шульца для подготовки команды к Олимпийским играм в Сеуле 1988 года. В надежде посвятить всего себя тренировкам, достойно выступить и выйти из тени своего брата, легендарного борца Дейва Шульца, Марк принимает предложение. Но параноик Дюпон затевает игру в кошки-мышки с Марком и Дейвом.-
    MPAA: R - Лицам до 17 лет обязательно присутствие взрослого-Сэмпл: http://multi-up.com/1049725
    Источник: Релиз группы -
    Качество: BDRip [Охотник на лис / Foxcatcher (2014) Blu-ray RUS 1080p AVC DTS 5.1]
    Контейнер: MKV-Видео: AVC, 1060x572 (1.853), 23.976 fps, 2 269 Kbps (0.156 bit/pixel)
    Аудио #1: AC-3, 48.0 KHz, 6 ch, 448 Kbps, CBR (Russian)
    Аудио #2: AC-3, 48.0 KHz, 6 ch, 384 Kbps, CBR (English)
    Навигация по главам: есть
    -

    » Скриншоты


    -

    » Media Info

    Complete name : D:\Ohotnik.na.Lis.2014.DUAL.BDRip.x264.-HELLYWOOD.mkv
    Format : Matroska
    Format version : Version 4 / Version 2
    File size : 2.91 GiB
    Duration : 2h 14mn
    Overall bit rate : 3 101 Kbps
    Movie name : Foxcatcher (2014) - HELLYWOOD
    Encoded date : UTC 2015-05-21 21:59:29
    Writing application : mkvmerge v5.9.0 ('On The Loose') built on Dec 15 2012 16:39:58
    Writing library : libebml v1.3.0 + libmatroska v1.4.0
    Video
    ID : 1
    Format : AVC
    Format/Info : Advanced Video Codec
    Format profile : High@L4.1
    Format settings, CABAC : Yes
    Format settings, ReFrames : 10 frames
    Codec ID : V_MPEG4/ISO/AVC
    Duration : 2h 14mn
    Bit rate : 2 269 Kbps
    Width : 1 060 pixels
    Height : 572 pixels
    Display aspect ratio : 1.85:1
    Frame rate mode : Constant
    Frame rate : 23.976 fps
    Color space : YUV
    Chroma subsampling : 4:2:0
    Bit depth : 8 bits
    Scan type : Progressive
    Bits/(Pixel*Frame) : 0.156
    Stream size : 2.07 GiB (71%)
    Title : potroks
    Writing library : x264 core 130 r2273 b3065e6
    Encoding settings : cabac=1 / ref=10 / deblock=1:-3:-3 / analyse=0x3:0x133 / me=umh / subme=11 / psy=1 / psy_rd=0.94:0.00 / mixed_ref=1 / me_range=48 / chroma_me=1 / trellis=2 / 8x8dct=1 / cqm=0 / deadzone=21,11 / fast_pskip=0 / chroma_qp_offset=-2 / threads=9 / lookahead_threads=6 / sliced_threads=0 / nr=0 / decimate=0 / interlaced=0 / bluray_compat=0 / constrained_intra=0 / bframes=11 / b_pyramid=2 / b_adapt=2 / b_bias=0 / direct=3 / weightb=1 / open_gop=0 / weightp=2 / keyint=250 / keyint_min=23 / scenecut=40 / intra_refresh=0 / rc_lookahead=60 / rc=2pass / mbtree=0 / bitrate=2269 / ratetol=1.0 / qcomp=0.70 / qpmin=0 / qpmax=69 / qpstep=4 / cplxblur=20.0 / qblur=0.5 / vbv_maxrate=50000 / vbv_bufsize=62500 / nal_hrd=none / ip_ratio=1.35 / pb_ratio=1.25 / aq=1:1.00
    Language : English
    Default : Yes
    Forced : No
    Audio #1
    ID : 2
    Format : AC-3
    Format/Info : Audio Coding 3
    Mode extension : CM (complete main)
    Format settings, Endianness : Big
    Codec ID : A_AC3
    Duration : 2h 14mn
    Bit rate mode : Constant
    Bit rate : 448 Kbps
    Channel(s) : 6 channels
    Channel positions : Front: L C R, Side: L R, LFE
    Sampling rate : 48.0 KHz
    Bit depth : 16 bits
    Compression mode : Lossy
    Delay relative to video : 4ms
    Stream size : 431 MiB (14%)
    Title : Dub | DD 5.1 @ 448 kbps - Blu-Ray RUS
    Language : Russian
    Default : Yes
    Forced : No
    Audio #2
    ID : 3
    Format : AC-3
    Format/Info : Audio Coding 3
    Mode extension : CM (complete main)
    Format settings, Endianness : Big
    Codec ID : A_AC3
    Duration : 2h 14mn
    Bit rate mode : Constant
    Bit rate : 384 Kbps
    Channel(s) : 6 channels
    Channel positions : Front: L C R, Side: L R, LFE
    Sampling rate : 48.0 KHz
    Bit depth : 16 bits
    Compression mode : Lossy
    Stream size : 369 MiB (12%)
    Title : Original | DD 5.1 @ 384 kbps
    Language : English
    Default : No
    Forced : No
    Text #1
    ID : 4
    Format : UTF-8
    Codec ID : S_TEXT/UTF8
    Codec ID/Info : UTF-8 Plain Text
    Language : Russian
    Default : No
    Forced : No
    Text #2
    ID : 5
    Format : UTF-8
    Codec ID : S_TEXT/UTF8
    Codec ID/Info : UTF-8 Plain Text
    Title : Full
    Language : English
    Default : No
    Forced : No
    Text #3
    ID : 6
    Format : UTF-8
    Codec ID : S_TEXT/UTF8
    Codec ID/Info : UTF-8 Plain Text
    Title : SDH1
    Language : English
    Default : No
    Forced : No
    Text #4
    ID : 7
    Format : UTF-8
    Codec ID : S_TEXT/UTF8
    Codec ID/Info : UTF-8 Plain Text
    Title : SDH2
    Language : English
    Default : No
    Forced : No
    Text #5
    ID : 8
    Format : UTF-8
    Codec ID : S_TEXT/UTF8
    Codec ID/Info : UTF-8 Plain Text
    Title : SDH-Colored
    Language : English
    Default : No
    Forced : No
    Menu
    00:00:00.000 : en:00:00:00.000
    00:06:21.506 : en:00:06:21.506
    00:14:56.771 : en:00:14:56.771
    00:27:36.154 : en:00:27:36.154
    00:36:29.521 : en:00:36:29.521
    00:40:51.741 : en:00:40:51.741
    00:47:27.803 : en:00:47:27.803
    00:58:13.657 : en:00:58:13.657
    01:06:09.966 : en:01:06:09.966
    01:16:35.424 : en:01:16:35.424
    01:21:49.196 : en:01:21:49.196
    01:25:58.278 : en:01:25:58.278
    01:37:25.339 : en:01:37:25.339
    01:44:00.568 : en:01:44:00.568
    01:51:13.750 : en:01:51:13.750
    01:56:19.681 : en:01:56:19.681
    Скачать .torrent

    Скачать торрент-файл бесплатно и на максимальной скорости!

    Как скачивать? · Что такое торрент? · Рейтинг и ограничения

    !ВНИМАНИЕ!
    Сайт не распространяет и не хранит электронные версии произведений, а занимается лишь лишь предоставлением доступа к создаваемому пользователями каталогу ссылок на торрент-файлы, которые содержат только списки хеш-сумм, убедительная просьба с жалобами обращаться напрямую к пользователю. Файлы для обмена на трекере предоставлены пользователями сайта, и администрация не несёт ответственности за их содержание. Просьба не заливать файлы, защищенные авторскими правами, а также файлы нелегального содержания!


    _________________
    [Профиль] [ЛС]
    Показать сообщения:    
    Ответить на тему

    Текущее время: Сегодня, в 04:21

    Часовой пояс: GMT + 2



    Вы не можете начинать темы
    Вы не можете отвечать на сообщения
    Вы не можете редактировать свои сообщения
    Вы не можете удалять свои сообщения
    Вы не можете голосовать в опросах
    Вы не можете прикреплять файлы к сообщениям
    Вы не можете скачивать файлы