BitTorrentTracker PerecTracker.org
BitTorrentTracker PerecTracker.org
    
Регистрация  ·  Вход
 
 · 
Забыли пароль?

  • Когда любовь запаздывает / Kad ljubav zakasni (Иван Стефанович / Ivan Stefanovic) [2014, Сербия, Мелодрама, TVRip] Sub Rus

    Ответить на тему
     
    Автор Сообщение

    Light

    Создавать темы 25-Май-2015 14:54

           

    [Цитировать]

    Когда любовь запаздывает / Kad ljubav zakasni
    Страна: Сербия
    Жанр: Мелодрама
    Год выпуска: 2014
    Продолжительность: 1:42:59
    Перевод: Субтитры gordana75
    Cубтитры: русские
    Оригинальная аудиодорожка: сербская
    Режиссер: Иван Стефанович / Ivan Stefanovic
    В ролях: Милош Бикович, Бранкица Себастьянович, Душанка Стоянович, Никола Ранджелович, Юрош Яковлевич, Елисавета Караджич, Бояна Ковачевич, Мило Лекич
    Описание: Радмило Томич, успешный адвокат, завидный жених для всех девушек своего провинциального городка женится на белградке Лиляне, влюбленной в другого человека. В брачную ночь Лиляна признается Радмило, что любит другого, а с ним жить не может. Радмило предлагает развод, но не сразу, а через три месяца, в течение которых они с Лиляной должны изображать для окружающих счастливую семейную пару. В течение "испытательного срока" молодым людям предстоит пережить ревность и козни соседей и понять, что они любят друг друга, несмотря ни на что.
    Доп. информация: Это экранизация романа Мирь Ям "Samac u braku" и киноверсия одноименного с романом сериала.
    Сэмпл: http://multi-up.com/98435687
    Качество видео: TVRip
    Формат видео: MKV
    Видео: MPEG4, 720*576, 16:9, 25.000 fps, 987 Kbps
    Аудио: MPEG1 Layer 2, 48.0 KHz, 128 Kbps, 2 channels
    Формат субтитров: softsub (SRT)

    MediaInfo

    General
    Unique ID : 245368861820810758712913643040733494215 (0xB89852E72F2972E8F198058BC44D7BC7)
    Complete name : /home/evgeny/Загрузки/Kad.ljubav.zakasni[2014]/Kad.ljubav.zakasni.mkv
    Format : Matroska
    Format version : Version 2
    File size : 838 MiB
    Duration : 1h 42mn
    Overall bit rate mode : Variable
    Overall bit rate : 1 137 Kbps
    Writing application : Lavf52.64.2
    Writing library : Lavf52.64.2
    Video
    ID : 1
    Format : AVC
    Format/Info : Advanced Video Codec
    Format profile : Main@L3.1
    Format settings, CABAC : Yes
    Format settings, ReFrames : 3 frames
    Format settings, GOP : M=2, N=33
    Codec ID : V_MPEG4/ISO/AVC
    Duration : 1h 42mn
    Bit rate mode : Variable
    Bit rate : 987 Kbps
    Maximum bit rate : 1 210 Kbps
    Width : 720 pixels
    Height : 576 pixels
    Display aspect ratio : 16:9
    Original display aspect ratio : 1.000
    Frame rate mode : Constant
    Frame rate : 25.000 fps
    Standard : PAL
    Color space : YUV
    Chroma subsampling : 4:2:0
    Bit depth : 8 bits
    Scan type : Progressive
    Bits/(Pixel*Frame) : 0.095
    Stream size : 727 MiB (87%)
    Default : Yes
    Forced : No
    Audio
    ID : 2
    Format : MPEG Audio
    Format version : Version 1
    Format profile : Layer 2
    Codec ID : A_MPEG/L2
    Codec ID/Hint : MP2
    Duration : 1h 42mn
    Bit rate mode : Constant
    Bit rate : 128 Kbps
    Channel(s) : 2 channels
    Sampling rate : 48.0 KHz
    Compression mode : Lossy
    Stream size : 94.3 MiB (11%)
    Language : English
    Default : Yes
    Forced : No

    Скриншот c названием фильма

    Скриншоты





    Фрагмент субтитров

    2
    00:01:48,150 --> 00:01:49,695
    Тетя.
    3
    00:01:50,467 --> 00:01:52,785
    Г-жа Петрониевич.
    4
    00:01:53,944 --> 00:01:56,647
    Чему обязан этому
    внезапному визиту?
    5
    00:02:01,282 --> 00:02:06,690
    Радмило, ты мне как сын и знаешь это.
    - Знаю.
    6
    00:02:07,462 --> 00:02:09,780
    Я всегда тебя во всем поддерживала.
    7
    00:02:10,552 --> 00:02:13,256
    А было в чем.
    8
    00:02:14,029 --> 00:02:17,505
    Ты успешный адвокат.
    У тебя хороший дом.
    9
    00:02:17,891 --> 00:02:20,595
    Ты успешен во всех отношениях.
    10
    00:02:21,754 --> 00:02:23,685
    Спасибо, тетя.
    11
    00:02:26,389 --> 00:02:29,865
    А всё, чего ты добился в жизни,
    ты добился сам.
    12
    00:02:30,251 --> 00:02:33,341
    Можно мы перейдем к делу?
    - Пожалуйста.
    13
    00:02:33,341 --> 00:02:37,204
    Спасибо. У вас и правда есть всё.
    14
    00:02:38,362 --> 00:02:41,066
    Только жены нет.
    15
    00:02:46,087 --> 00:02:47,632
    Да.
    16
    00:02:48,405 --> 00:02:52,267
    Пора тебе жениться.
    - Да.
    17
    00:02:53,812 --> 00:02:56,516
    Должен сказать,
    что согласен с вами.
    18
    00:02:57,675 --> 00:03:02,310
    У меня есть идеальная супруга
    для вас, моя Дара.
    19
    00:03:04,241 --> 00:03:08,876
    Чуть не повезло сделать все задания.
    Не дотяну и до тройки.
    20
    00:03:09,649 --> 00:03:11,580
    А ты?
    21
    00:03:12,739 --> 00:03:16,601
    Татьяна, что с тобой? Чего молчишь?
    - И меня тревожат оценки.
    22
    00:03:18,532 --> 00:03:20,077
    Не тревожат тебя оценки.
    23
    00:03:20,850 --> 00:03:24,712
    А что?
    - А то...
    Скачать .torrent

    Скачать торрент-файл бесплатно и на максимальной скорости!

    Как скачивать? · Что такое торрент? · Рейтинг и ограничения

    !ВНИМАНИЕ!
    Сайт не распространяет и не хранит электронные версии произведений, а занимается лишь лишь предоставлением доступа к создаваемому пользователями каталогу ссылок на торрент-файлы, которые содержат только списки хеш-сумм, убедительная просьба с жалобами обращаться напрямую к пользователю. Файлы для обмена на трекере предоставлены пользователями сайта, и администрация не несёт ответственности за их содержание. Просьба не заливать файлы, защищенные авторскими правами, а также файлы нелегального содержания!


    _________________
    [Профиль] [ЛС]
    Показать сообщения:    
    Ответить на тему

    Текущее время: Сегодня, в 14:22

    Часовой пояс: GMT + 2



    Вы не можете начинать темы
    Вы не можете отвечать на сообщения
    Вы не можете редактировать свои сообщения
    Вы не можете удалять свои сообщения
    Вы не можете голосовать в опросах
    Вы не можете прикреплять файлы к сообщениям
    Вы не можете скачивать файлы