BitTorrentTracker PerecTracker.org
BitTorrentTracker PerecTracker.org
    
Регистрация  ·  Вход
 
 · 
Забыли пароль?

  • Войдите, страждущие! (Леонид Осыка) [1987, Экранизация, DVB]

    Ответить на тему
     
    Автор Сообщение

    Light

    Создавать темы 25-Май-2015 10:42

           

    [Цитировать]

    Войдите, страждущие!
    Жанр: Экранизация
    Год выпуска: 1987
    Продолжительность: 1:17:37
    Режиссёр: Леонид Осыка
    В ролях: Григорий Гладий, Борис Хмельницкий, Алла Одинг, Светлана Князева, Александр Игнатуша, Анатолий Венгржиновский, Любовь Кузьмина
    Описание: На берегу дивного озера, затерявшегося в песках Казахстана, стояли четыре прочных домика, связанных между собой полосой огородов. Здесь жили отшельники: дед Матвей, баба Верунья, Маруся и Леня. Жили в ладах с природой и были счастливы. Но однажды Седьмой Гурт посетили пришельцы - заблудившиеся московские ученые - и невольно нарушили ход жизни тихой обители...
    Доп. информация: Производство: Киностудия им. А. Довженко
    Семпл: https://www.sendspace.com/file/e0et0b
    Качество видео: DVB
    Формат видео: MPEG-PS
    Видео: MPEG Video , 720x576(4:3), 25,000 кадров/сек,2 694 Kbps
    Аудио: MPEG Audio, 48,0 КГц, 192 Кбит/сек, 2 канала

    MediaInfo

    Complete name Войдите, страждущие 1987.mpg
    Format : MPEG-PS
    File size : 1.60 GiB
    Duration : 1h 17mn
    Overall bit rate mode : Variable
    Overall bit rate : 2 945 Kbps
    Video
    ID : 224 (0xE0)
    Format : MPEG Video
    Format version : Version 2
    Format profile : Main@Main
    Format settings, BVOP : Yes
    Format settings, Matrix : Default
    Format settings, GOP : M=3, N=12
    Duration : 1h 17mn
    Bit rate mode : Variable
    Bit rate : 2 694 Kbps
    Maximum bit rate : 9 500 Kbps
    Width : 720 pixels
    Height : 576 pixels
    Display aspect ratio : 4:3
    Frame rate : 25.000 fps
    Standard : PAL
    Color space : YUV
    Chroma subsampling : 4:2:0
    Bit depth : 8 bits
    Scan type : Progressive
    Compression mode : Lossy
    Bits/(Pixel*Frame) : 0.260
    Time code of first frame : 00:00:00:00
    Time code source : Group of pictures header
    Stream size : 1.46 GiB (91%)
    Audio
    ID : 192 (0xC0)
    Format : MPEG Audio
    Format version : Version 1
    Format profile : Layer 2
    Duration : 1h 17mn
    Bit rate mode : Constant
    Bit rate : 192 Kbps
    Channel(s) : 2 channels
    Sampling rate : 48.0 KHz
    Compression mode : Lossy
    Stream size : 107 MiB (7%)

    Скриншоты

    Скачать .torrent

    Скачать торрент-файл бесплатно и на максимальной скорости!

    Как скачивать? · Что такое торрент? · Рейтинг и ограничения

    !ВНИМАНИЕ!
    Сайт не распространяет и не хранит электронные версии произведений, а занимается лишь лишь предоставлением доступа к создаваемому пользователями каталогу ссылок на торрент-файлы, которые содержат только списки хеш-сумм, убедительная просьба с жалобами обращаться напрямую к пользователю. Файлы для обмена на трекере предоставлены пользователями сайта, и администрация не несёт ответственности за их содержание. Просьба не заливать файлы, защищенные авторскими правами, а также файлы нелегального содержания!


    _________________
    [Профиль] [ЛС]
    Показать сообщения:    
    Ответить на тему

    Текущее время: Сегодня, в 02:30

    Часовой пояс: GMT + 2



    Вы не можете начинать темы
    Вы не можете отвечать на сообщения
    Вы не можете редактировать свои сообщения
    Вы не можете удалять свои сообщения
    Вы не можете голосовать в опросах
    Вы не можете прикреплять файлы к сообщениям
    Вы не можете скачивать файлы