Register  ·  Log in
Forgot password?

  • Войдите, страждущие! (Леонид Осыка) [1987, Экранизация, DVB]

    Reply to topic
    Author Message


    Post 25-May-2015 11:42



    Войдите, страждущие!
    Жанр: Экранизация
    Год выпуска: 1987
    Продолжительность: 1:17:37
    Режиссёр: Леонид Осыка
    В ролях: Григорий Гладий, Борис Хмельницкий, Алла Одинг, Светлана Князева, Александр Игнатуша, Анатолий Венгржиновский, Любовь Кузьмина
    Описание: На берегу дивного озера, затерявшегося в песках Казахстана, стояли четыре прочных домика, связанных между собой полосой огородов. Здесь жили отшельники: дед Матвей, баба Верунья, Маруся и Леня. Жили в ладах с природой и были счастливы. Но однажды Седьмой Гурт посетили пришельцы - заблудившиеся московские ученые - и невольно нарушили ход жизни тихой обители...
    Доп. информация: Производство: Киностудия им. А. Довженко
    Качество видео: DVB
    Формат видео: MPEG-PS
    Видео: MPEG Video , 720x576(4:3), 25,000 кадров/сек,2 694 Kbps
    Аудио: MPEG Audio, 48,0 КГц, 192 Кбит/сек, 2 канала


    Complete name Войдите, страждущие 1987.mpg
    Format : MPEG-PS
    File size : 1.60 GiB
    Duration : 1h 17mn
    Overall bit rate mode : Variable
    Overall bit rate : 2 945 Kbps
    ID : 224 (0xE0)
    Format : MPEG Video
    Format version : Version 2
    Format profile : Main@Main
    Format settings, BVOP : Yes
    Format settings, Matrix : Default
    Format settings, GOP : M=3, N=12
    Duration : 1h 17mn
    Bit rate mode : Variable
    Bit rate : 2 694 Kbps
    Maximum bit rate : 9 500 Kbps
    Width : 720 pixels
    Height : 576 pixels
    Display aspect ratio : 4:3
    Frame rate : 25.000 fps
    Standard : PAL
    Color space : YUV
    Chroma subsampling : 4:2:0
    Bit depth : 8 bits
    Scan type : Progressive
    Compression mode : Lossy
    Bits/(Pixel*Frame) : 0.260
    Time code of first frame : 00:00:00:00
    Time code source : Group of pictures header
    Stream size : 1.46 GiB (91%)
    ID : 192 (0xC0)
    Format : MPEG Audio
    Format version : Version 1
    Format profile : Layer 2
    Duration : 1h 17mn
    Bit rate mode : Constant
    Bit rate : 192 Kbps
    Channel(s) : 2 channels
    Sampling rate : 48.0 KHz
    Compression mode : Lossy
    Stream size : 107 MiB (7%)


    Download .torrent

    Download free and at maximum speed!

    How to Download? · What is a torrent? · Ratings and Limitations

    The site does not extend and does not store electronic(digital) versions of products, and only gives access to a reference catalogue created by users on torrent-files which contain only lists of the hash-sums, the earnest entreaty, with complaints(abuse) to access directly to the user. Files for an exchange on tracker are given by users of a site, and the administration does not bear the responsibility for their maintenance. The request to not fill in the files protected by copyrights, and also files of the illegal maintenance!

    [Profile] [PM]
    Display posts from previous:    
    Reply to topic

    The time now is: Today 17:15

    All times are GMT + 3 Hours

    You cannot post new topics in this forum
    You cannot reply to topics in this forum
    You cannot edit your posts in this forum
    You cannot delete your posts in this forum
    You cannot vote in polls in this forum
    You cannot attach files in this forum
    You cannot download files in this forum