Register  ·  Log in
Forgot password?

  • Ловушка для одинокого мужчины (Алексей Коренев) [1990, комедия, криминал, DVDRip]

    Reply to topic
    Author Message


    Post 24-May-2015 18:54



    Ловушка для одинокого мужчины
    Жанр: комедия, криминал
    Год выпуска: 1990
    Продолжительность: 01:27:04
    Режиссёр: Алексей Коренев
    В ролях: Николай Караченцов, Юрий Яковлев, Ирина Шмелева, Вениамин Смехов, Иннокентий Смоктуновский, Елена Коренева, Сергей Мигицко, Валентин Смирнитский.
    Описание: Неожиданное исчезновение молодой жены вынудило главного героя обратиться в полицию. Комиссар начинает расследование, а тем временам местный кюре приводит к безутешному мужу якобы раскаявшуюся жену. Но Даниэль заявляет, что никогда прежде не видел эту женщину. Он подозревает в самозванке мошенницу, которая претендует на наследство, а в кюре — ее сообщника.
    Качество видео: DVDRip Исходник
    Формат видео: AVI
    Видео: 704x528 (1.33:1), 25 fps, XviD build 73 ~1948 kbps avg, 0.21 bit/pixel
    Аудио: 48 kHz, AC3 Dolby Digital, 3/2 (L,C,R,l,r) + LFE ch, ~448 kbps

    Фильтрация, задействована опция Packed bitstream.


    Complete name : C:\Ловушка для одинокого мужчины.avi
    Format : AVI
    Format/Info : Audio Video Interleave
    File size : 1.46 GiB
    Duration : 1h 27mn
    Overall bit rate : 2 406 Kbps
    Writing application : VirtualDubMod (build 2550/release)
    Writing library : VirtualDubMod build 2550/release
    ID : 0
    Format : MPEG-4 Visual
    Format profile : Advanced Simple@L5
    Format settings, BVOP : 1
    Format settings, QPel : No
    Format settings, GMC : No warppoints
    Format settings, Matrix : Custom
    Codec ID : XVID
    Codec ID/Hint : XviD
    Duration : 1h 27mn
    Bit rate : 1 948 Kbps
    Width : 704 pixels
    Height : 528 pixels
    Display aspect ratio : 4:3
    Frame rate : 25.000 fps
    Color space : YUV
    Chroma subsampling : 4:2:0
    Bit depth : 8 bits
    Scan type : Progressive
    Compression mode : Lossy
    Bits/(Pixel*Frame) : 0.210
    Stream size : 1.18 GiB (81%)
    Writing library : XviD 73
    ID : 1
    Format : AC-3
    Format/Info : Audio Coding 3
    Mode extension : CM (complete main)
    Format settings, Endianness : Big
    Codec ID : 2000
    Duration : 1h 27mn
    Bit rate mode : Constant
    Bit rate : 448 Kbps
    Channel(s) : 6 channels
    Channel positions : Front: L C R, Side: L R, LFE
    Sampling rate : 48.0 KHz
    Bit depth : 16 bits
    Compression mode : Lossy
    Stream size : 279 MiB (19%)
    Alignment : Split accross interleaves
    Interleave, duration : 40 ms (1.00 video frame)
    Interleave, preload duratio : 500 ms


    Download .torrent

    Download free and at maximum speed!

    How to Download? · What is a torrent? · Ratings and Limitations

    The site does not extend and does not store electronic(digital) versions of products, and only gives access to a reference catalogue created by users on torrent-files which contain only lists of the hash-sums, the earnest entreaty, with complaints(abuse) to access directly to the user. Files for an exchange on tracker are given by users of a site, and the administration does not bear the responsibility for their maintenance. The request to not fill in the files protected by copyrights, and also files of the illegal maintenance!

    [Profile] [PM]
    Display posts from previous:    
    Reply to topic

    The time now is: Today 08:04

    All times are GMT + 3 Hours

    You cannot post new topics in this forum
    You cannot reply to topics in this forum
    You cannot edit your posts in this forum
    You cannot delete your posts in this forum
    You cannot vote in polls in this forum
    You cannot attach files in this forum
    You cannot download files in this forum