BitTorrentTracker PerecTracker.org
BitTorrentTracker PerecTracker.org
    
Регистрация  ·  Вход
 
 · 
Забыли пароль?

  • Ловушка для одинокого мужчины (Алексей Коренев) [1990, комедия, криминал, DVDRip]

    Ответить на тему
     
    Автор Сообщение

    Light

    Создавать темы 24-Май-2015 17:54

           

    [Цитировать]

    Ловушка для одинокого мужчины
    Жанр: комедия, криминал
    Год выпуска: 1990
    Продолжительность: 01:27:04
    Режиссёр: Алексей Коренев
    В ролях: Николай Караченцов, Юрий Яковлев, Ирина Шмелева, Вениамин Смехов, Иннокентий Смоктуновский, Елена Коренева, Сергей Мигицко, Валентин Смирнитский.
    Описание: Неожиданное исчезновение молодой жены вынудило главного героя обратиться в полицию. Комиссар начинает расследование, а тем временам местный кюре приводит к безутешному мужу якобы раскаявшуюся жену. Но Даниэль заявляет, что никогда прежде не видел эту женщину. Он подозревает в самозванке мошенницу, которая претендует на наследство, а в кюре — ее сообщника.
    Семпл: http://multi-up.com/1050159
    Качество видео: DVDRip Исходник
    Формат видео: AVI
    Видео: 704x528 (1.33:1), 25 fps, XviD build 73 ~1948 kbps avg, 0.21 bit/pixel
    Аудио: 48 kHz, AC3 Dolby Digital, 3/2 (L,C,R,l,r) + LFE ch, ~448 kbps

    Сравнение

    http://perectracker.org/viewtopic.php?t=1260448
    http://screenshotcomparison.com/comparison/128485/picture:2
    Фильтрация, задействована опция Packed bitstream.

    MediaInfo

    General
    Complete name : C:\Ловушка для одинокого мужчины.avi
    Format : AVI
    Format/Info : Audio Video Interleave
    File size : 1.46 GiB
    Duration : 1h 27mn
    Overall bit rate : 2 406 Kbps
    Writing application : VirtualDubMod 1.5.10.3 (build 2550/release)
    Writing library : VirtualDubMod build 2550/release
    Video
    ID : 0
    Format : MPEG-4 Visual
    Format profile : Advanced Simple@L5
    Format settings, BVOP : 1
    Format settings, QPel : No
    Format settings, GMC : No warppoints
    Format settings, Matrix : Custom
    Codec ID : XVID
    Codec ID/Hint : XviD
    Duration : 1h 27mn
    Bit rate : 1 948 Kbps
    Width : 704 pixels
    Height : 528 pixels
    Display aspect ratio : 4:3
    Frame rate : 25.000 fps
    Color space : YUV
    Chroma subsampling : 4:2:0
    Bit depth : 8 bits
    Scan type : Progressive
    Compression mode : Lossy
    Bits/(Pixel*Frame) : 0.210
    Stream size : 1.18 GiB (81%)
    Writing library : XviD 73
    Audio
    ID : 1
    Format : AC-3
    Format/Info : Audio Coding 3
    Mode extension : CM (complete main)
    Format settings, Endianness : Big
    Codec ID : 2000
    Duration : 1h 27mn
    Bit rate mode : Constant
    Bit rate : 448 Kbps
    Channel(s) : 6 channels
    Channel positions : Front: L C R, Side: L R, LFE
    Sampling rate : 48.0 KHz
    Bit depth : 16 bits
    Compression mode : Lossy
    Stream size : 279 MiB (19%)
    Alignment : Split accross interleaves
    Interleave, duration : 40 ms (1.00 video frame)
    Interleave, preload duratio : 500 ms

    Скриншоты

    Скачать .torrent

    Скачать торрент-файл бесплатно и на максимальной скорости!

    Как скачивать? · Что такое торрент? · Рейтинг и ограничения

    !ВНИМАНИЕ!
    Сайт не распространяет и не хранит электронные версии произведений, а занимается лишь лишь предоставлением доступа к создаваемому пользователями каталогу ссылок на торрент-файлы, которые содержат только списки хеш-сумм, убедительная просьба с жалобами обращаться напрямую к пользователю. Файлы для обмена на трекере предоставлены пользователями сайта, и администрация не несёт ответственности за их содержание. Просьба не заливать файлы, защищенные авторскими правами, а также файлы нелегального содержания!


    _________________
    [Профиль] [ЛС]
    Показать сообщения:    
    Ответить на тему

    Текущее время: Сегодня, в 18:25

    Часовой пояс: GMT + 2



    Вы не можете начинать темы
    Вы не можете отвечать на сообщения
    Вы не можете редактировать свои сообщения
    Вы не можете удалять свои сообщения
    Вы не можете голосовать в опросах
    Вы не можете прикреплять файлы к сообщениям
    Вы не можете скачивать файлы